<?xml version="1.0" standalone="no"?>
<!DOCTYPE svg PUBLIC "-//W3C//DTD SVG 1.1//EN" "http://www.w3.org/Graphics/SVG/1.1/DTD/svg11.dtd" >
<!--
2012-7-17: Created.
-->
<svg>
<metadata>
Created by FontForge 20110222 at Thu Jan 31 03:56:08 2013
 By KazuyukiMotoyama
Created by KazuyukiMotoyama with FontForge 2.0 (http://fontforge.sf.net) OFL license
</metadata>
<defs>
<font id="LigatureSymbols" horiz-adv-x="716" >
  <font-face 
    font-family="LigatureSymbols"
    font-weight="400"
    font-stretch="normal"
    units-per-em="1024"
    panose-1="2 0 5 3 0 0 0 0 0 0"
    ascent="819"
    descent="-205"
    x-height="526"
    cap-height="735"
    bbox="-15 -227 3034.26 859"
    underline-thickness="51"
    underline-position="-102"
    unicode-range="U+0020-FF00"
  />
<missing-glyph horiz-adv-x="476" 
d="M102 0h272v682h-272v-682zM136 34v614h204v-614h-204z" />
    <glyph glyph-name="addstar" unicode="addstar" 
d="M78 33h561c43 0 78 35 78 78v393c0 43 -35 78 -78 78h-561c-43 0 -78 -35 -78 -78v-393c0 -43 35 -78 78 -78zM42 111v393c0 19 17 35 36 35h561c19 0 36 -16 36 -35v-393c0 -19 -17 -35 -36 -35h-561c-19 0 -36 16 -36 35zM136 130l114 60l114 -60l-22 127l92 89
l-127 20l-57 114l-56 -114l-128 -20l92 -89zM562 307h80v-45h-80v-81h-46v81h-81v45h81v81h46v-81z" />
    <glyph glyph-name="adjust" unicode="adjust" 
d="M358 666c198 0 359 -161 359 -359s-161 -358 -359 -358s-358 160 -358 358s160 359 358 359zM358 603v-592c164 0 296 132 296 296s-132 296 -296 296z" />
    <glyph glyph-name="album" unicode="album" horiz-adv-x="595" 
d="M81 666h434c45 0 81 -37 81 -81v-475c0 -43 -35 -79 -78 -81v54c13 2 24 14 24 27v475c0 14 -13 26 -27 26h-434c-14 0 -27 -12 -27 -26c5 1 12 2 18 2c5 0 9 0 14 -1l325 -49c44 -8 76 -48 76 -92v-423c0 -42 -30 -73 -71 -73c-4 0 -10 0 -15 1l-324 49
c-43 8 -77 48 -77 91v495c0 44 37 81 81 81zM97 411l285 -42l7 49l-285 42zM157 368l-4 -30l158 -24l4 30z" />
    <glyph glyph-name="alignadjust" unicode="alignadjust" horiz-adv-x="665" 
d="M29 604h609c15 0 28 -13 28 -27v-41c0 -16 -13 -29 -28 -29h-609c-16 0 -29 13 -29 29v41c0 15 13 27 29 27zM29 438h609c15 0 28 -12 28 -26v-42c0 -15 -13 -28 -28 -28h-609c-16 0 -29 13 -29 28v42c0 14 13 26 29 26zM29 272h609c15 0 28 -12 28 -26v-42
c0 -15 -13 -28 -28 -28h-609c-16 0 -29 13 -29 28v42c0 14 13 26 29 26zM29 108h609c15 0 28 -14 28 -28v-41c0 -16 -13 -29 -28 -29h-609c-16 0 -29 13 -29 29v41c0 15 13 28 29 28z" />
    <glyph glyph-name="aligncenter" unicode="aligncenter" horiz-adv-x="665" 
d="M500 507h-333c-16 0 -29 14 -29 28v42c0 14 13 27 29 27h333c14 0 27 -13 27 -27v-42c0 -15 -13 -28 -27 -28zM610 345h-555c-15 0 -27 12 -27 28v41c0 16 12 27 27 27h555c15 0 28 -11 28 -27v-41c0 -16 -13 -28 -28 -28zM527 182h-388c-16 0 -28 13 -28 28v42
c0 15 12 28 28 28h388c14 0 28 -13 28 -28v-42c0 -15 -14 -28 -28 -28zM29 108h609c15 0 28 -14 28 -28v-41c0 -16 -13 -29 -28 -29h-609c-16 0 -29 13 -29 29v41c0 15 13 28 29 28z" />
    <glyph glyph-name="alignleft" unicode="alignleft" horiz-adv-x="665" 
d="M0 577v-42c0 -14 13 -28 29 -28h331c15 0 28 13 28 28v42c0 14 -13 27 -28 27h-331c-16 0 -29 -13 -29 -27zM0 414v-41c0 -16 13 -28 29 -28h554c15 0 27 12 27 28v41c0 15 -12 27 -27 27h-554c-16 0 -29 -12 -29 -27zM0 252v-42c0 -15 13 -28 29 -28h388
c14 0 26 13 26 28v42c0 15 -12 28 -26 28h-388c-16 0 -29 -13 -29 -28zM0 80v-41c0 -16 13 -29 29 -29h609c15 0 28 13 28 29v41c0 14 -13 28 -28 28h-609c-16 0 -29 -13 -29 -28z" />
    <glyph glyph-name="alignright" unicode="alignright" horiz-adv-x="665" 
d="M638 507h-333c-15 0 -27 14 -27 28v42c0 14 12 27 27 27h333c15 0 28 -13 28 -27v-42c0 -15 -13 -28 -28 -28zM638 345h-555c-15 0 -28 12 -28 28v41c0 16 13 27 28 27h555c15 0 28 -11 28 -27v-41c0 -16 -13 -28 -28 -28zM638 182h-388c-15 0 -28 13 -28 28v42
c0 15 13 28 28 28h388c15 0 28 -13 28 -28v-42c0 -15 -13 -28 -28 -28zM29 108h609c15 0 28 -14 28 -28v-41c0 -16 -13 -29 -28 -29h-609c-16 0 -29 13 -29 29v41c0 15 13 28 29 28z" />
    <glyph glyph-name="amazon" unicode="ama&#x7a;on" 
d="M525 438v-155c0 -47 20 -68 38 -94c6 -9 7 -19 -1 -26c-19 -17 -57 -49 -76 -67l-1 1c-6 -6 -15 -7 -23 -3c-33 28 -40 41 -58 67c-54 -55 -92 -73 -164 -73c-84 0 -150 53 -150 157c0 81 45 136 107 163c54 24 130 27 188 34v14c0 24 2 51 -12 71c-12 18 -37 27 -57 27
c-38 0 -71 -19 -79 -60c-2 -9 -9 -18 -18 -19l-97 10c-8 2 -17 10 -14 22c22 118 128 152 223 152c49 0 112 -13 150 -49c49 -46 44 -106 44 -172zM385 341v21c-73 0 -148 -15 -148 -101c0 -43 22 -72 60 -72c29 0 54 16 70 45c19 35 18 67 18 107zM681 150
c12 -11 -2 -68 -8 -93c-2 -7 5 -9 10 -3c38 41 39 116 29 125c-10 10 -85 10 -126 -28c-6 -6 -4 -13 3 -11c26 6 81 21 92 10zM653 108c12 11 -1 24 -13 17c-83 -49 -175 -84 -261 -96c-129 -17 -259 13 -369 58c-9 4 -14 -6 -6 -11c104 -72 235 -121 372 -103
c98 13 206 66 277 135z" />
    <glyph glyph-name="android" unicode="android" horiz-adv-x="657" 
d="M466 680l-39 -55c61 -29 105 -83 110 -146h-416c5 63 48 117 109 146l-39 55c-2 4 -1 8 2 10s7 1 10 -2l40 -58c26 10 55 16 86 16s59 -6 86 -16l40 58c2 3 6 4 9 2s4 -6 2 -10zM241 537c13 0 23 10 23 23c0 12 -10 23 -23 23c-12 0 -23 -11 -23 -23c0 -13 11 -23 23 -23
zM419 537c13 0 23 10 23 23c0 12 -10 23 -23 23c-12 0 -23 -11 -23 -23c0 -13 11 -23 23 -23zM0 218v185c0 26 20 48 47 48c26 0 46 -22 46 -48v-185c0 -27 -20 -48 -46 -48c-27 0 -47 21 -47 48zM563 218v185c0 26 21 48 47 48s47 -22 47 -48v-185c0 -27 -21 -48 -47 -48
s-47 21 -47 48zM122 111v339h416v-339c0 -20 -17 -37 -37 -37h-41v-105c0 -26 -21 -47 -47 -47s-47 21 -47 47v105h-73v-105c0 -26 -20 -47 -46 -47c-27 0 -47 21 -47 47v105h-42c-19 0 -36 17 -36 37z" />
    <glyph glyph-name="app" unicode="app" horiz-adv-x="768" 
d="M577 244l-3 -2c-15 -8 -25 -14 -29 -14c-3 -1 -5 -2 -7 -3c-7 13 -27 52 -57 104c-36 66 -139 309 -142 319c-2 10 0 20 7 24c1 1 3 1 5 1c6 0 13 -4 17 -7c6 -5 123 -184 186 -298c38 -69 51 -94 56 -103c-2 -1 -4 -2 -6 -4c-4 -5 -18 -13 -24 -16h-1zM353 544l13 -7
c22 -12 27 -38 16 -60l-87 50c8 14 23 22 37 22c8 0 15 -1 21 -5zM368 453l1 -1c3 -1 3 -6 2 -8s-3 -3 -5 -3h-4l-1 1l-3 -5h1c3 -2 4 -5 3 -8c-2 -2 -3 -3 -5 -3c-1 0 -2 0 -3 1l-1 1l-6 -11l1 -1c2 -1 3 -5 2 -7s-3 -3 -5 -3c-1 0 -2 0 -3 1h-1l-3 -5l1 -1c3 -2 4 -5 2 -8
c-1 -2 -2 -3 -4 -3c-1 0 -2 1 -3 1l-1 1l-3 -4l-4 -7l-87 50l4 7l3 4l-1 1c-3 1 -4 6 -2 8c1 2 2 3 4 3c1 0 2 0 3 -1h1l3 4l-1 1c-3 2 -4 5 -2 8c1 2 3 3 5 3c1 0 2 -1 3 -1l1 -1l6 11h-1c-3 2 -4 5 -2 8c1 2 2 3 4 3c1 0 2 -1 3 -1l1 -1l3 6l-1 1c-3 1 -4 5 -2 7
c1 2 3 3 5 3h4l1 -1l4 7l87 -50zM56 115l172 298l87 -51l-172 -297l-4 -7c-15 6 -30 14 -44 22c-14 9 -29 19 -42 29l1 3zM0 159v149h133l-87 -149h-46zM521 191l14 -21l5 -5l3 -6h-311l87 149h139c34 -61 55 -101 55 -102c2 -3 3 -5 5 -6c1 -3 2 -7 3 -9zM657 239l-9 21
c-2 3 -3 5 -5 7c-1 3 -2 6 -3 8l-8 16c-3 5 -6 10 -10 17h146v-149h-75c0 1 -1 3 -1 5l-11 23c-1 2 -2 5 -4 7c0 3 -1 5 -2 7l-10 23c-1 2 -4 4 -5 6c-1 3 -2 7 -3 9zM653 174l10 -20l1 -3s-15 -13 -28 -20s-31 -13 -31 -13l-3 4l-11 18v8l-8 6l-15 21v7l-7 5l-8 13l-5 8
c7 1 19 6 37 16c1 0 1 1 2 1s1 1 2 1c15 8 26 15 31 22l4 -9l6 -13v-11l7 -4l10 -23l-1 -10zM670 129l84 -126c11 -20 1 -44 -19 -55c-7 -4 -15 -6 -22 -6c-14 0 -27 6 -35 19l-61 139c7 3 19 8 29 13c8 5 18 11 24 16zM32 -42l-5 -9c-1 -2 -4 -3 -7 -3h-1c-1 0 -2 0 -2 1
c-1 0 -1 1 -2 1c-2 2 -2 6 -1 8l5 9l29 122c12 -9 25 -18 37 -25s25 -13 38 -18z" />
    <glyph glyph-name="apple" unicode="apple" horiz-adv-x="601" 
d="M426 588c8 22 13 41 13 59c0 3 -1 5 -1 8s-1 7 -2 11c-50 -11 -85 -33 -107 -65c-22 -31 -33 -68 -34 -111c18 2 33 5 44 8c15 5 31 15 47 30c18 18 32 40 40 60zM369 488c-30 -10 -51 -14 -62 -14c-9 0 -28 4 -59 12c-30 9 -55 14 -77 14c-49 0 -90 -21 -123 -63
c-32 -42 -48 -95 -48 -161c0 -71 21 -143 63 -217c43 -74 87 -110 130 -110c14 0 32 5 57 14c23 9 43 14 61 14s40 -4 65 -13c26 -9 46 -13 61 -13c37 0 74 28 111 83c12 18 23 37 32 55c8 17 15 35 21 52c-27 8 -50 27 -69 55c-19 29 -29 61 -29 96c0 33 9 62 27 89
c11 14 28 32 50 51c-7 9 -15 18 -22 25c-8 7 -15 13 -22 18c-28 18 -59 28 -93 28c-20 0 -45 -6 -74 -15z" />
    <glyph glyph-name="arrowdown" unicode="arrowdown" 
d="M466 654h-215c-26 0 -45 -20 -45 -46v-250h-170c-16 0 -27 -7 -34 -22c-1 -5 -2 -9 -2 -12c0 -10 3 -19 10 -26l324 -323c12 -15 36 -14 50 0l323 323c22 20 7 60 -26 60h-171v250c0 26 -18 46 -44 46z" />
    <glyph glyph-name="arrowleft" unicode="arrowleft" horiz-adv-x="689" 
d="M689 206v215c0 26 -19 45 -45 45h-250v170c0 16 -8 27 -22 34c-5 1 -10 2 -14 2c-10 0 -18 -3 -24 -10l-324 -324c-14 -12 -13 -36 0 -50l324 -324c20 -22 60 -7 60 26v172h250c26 0 45 18 45 44z" />
    <glyph glyph-name="arrowright" unicode="arrowright" horiz-adv-x="690" 
d="M0 410v-215c0 -26 19 -45 46 -45h250v-172c0 -16 7 -26 22 -33c4 -1 9 -2 13 -2c10 0 18 3 25 10l323 325c14 12 14 36 0 50l-323 322c-20 22 -60 8 -60 -25v-171h-250c-27 0 -46 -18 -46 -44z" />
    <glyph glyph-name="arrowup" unicode="arrowup" 
d="M251 -40h215c26 0 45 20 45 46v250h170c16 0 28 8 34 23c2 5 2 8 2 12c0 10 -3 18 -10 25l-324 323c-11 15 -36 14 -50 0l-323 -323c-22 -20 -7 -60 26 -60h171v-250c0 -26 18 -46 44 -46z" />
    <glyph glyph-name="back" unicode="back" horiz-adv-x="489" 
d="M489 589v-563l-489 281z" />
    <glyph glyph-name="backspace" unicode="backspace" horiz-adv-x="768" 
d="M253 560h452c35 0 63 -28 63 -63v-379c0 -35 -28 -64 -63 -64h-452l-253 253zM566 152l57 56l-100 99l100 99l-57 57l-99 -99l-98 99l-57 -56l99 -100l-99 -98l57 -56l99 98z" />
    <glyph glyph-name="bad" unicode="bad" horiz-adv-x="665" 
d="M505 532v37h109v70h-371s-59 -45 -59 -45v-319s82 -61 118 -136c36 -76 34 -164 34 -164h94s4 72 0 129c-5 58 -24 129 -24 129h260v82h-161v37h161v73h-161v37h130v70h-130zM0 590h142v-308h-142v308z" />
    <glyph glyph-name="ban" unicode="ban" horiz-adv-x="715" 
d="M651 512c98 -139 85 -334 -40 -459s-318 -137 -458 -40c-16 12 -34 26 -49 40c-15 15 -28 32 -39 49c-98 139 -86 334 39 459s319 137 459 40c16 -12 33 -26 48 -40c15 -15 29 -32 40 -49zM129 167l370 370c-104 63 -242 50 -331 -39c-90 -90 -102 -228 -39 -331z
M587 447l-370 -369c104 -63 242 -50 331 39c90 90 102 227 39 330z" />
    <glyph glyph-name="barcode" unicode="barcode" horiz-adv-x="768" 
d="M0 10h25v594h-25v-594zM75 10h49v594h-49v-594zM173 10h50v594h-50v-594zM272 10h100v594h-100v-594zM421 10h75v594h-75v-594zM545 10h50v594h-50v-594zM644 10h25v594h-25v-594zM719 10h49v594h-49v-594z" />
    <glyph glyph-name="bell" unicode="bell" horiz-adv-x="768" 
d="M282 11h-205c-40 0 -75 29 -77 70c60 45 98 101 123 163c24 62 33 130 38 202c4 49 36 93 80 126c25 18 52 33 80 42c0 3 -2 6 -2 8c0 36 29 64 65 64s65 -28 65 -64c0 -2 -2 -6 -2 -8c28 -9 56 -24 81 -41c44 -32 79 -76 79 -124c4 -71 15 -142 40 -204
c25 -63 63 -120 121 -164c-2 -41 -37 -70 -77 -70h-205c-10 -48 -51 -83 -101 -83s-92 35 -103 83zM103 81h562c-45 50 -76 107 -94 168c-19 60 -28 124 -32 190c-2 32 -27 61 -58 83c-30 22 -66 34 -96 34c-28 0 -65 -14 -97 -34c-31 -20 -57 -50 -58 -80
c-3 -65 -13 -130 -31 -191c-20 -62 -52 -120 -96 -170zM385 -40c5 0 7 3 7 8c0 6 -2 9 -7 9c-32 0 -56 25 -56 56c0 6 -3 9 -8 9c-6 0 -10 -3 -10 -9c0 -40 33 -73 74 -73z" />
    <glyph glyph-name="bicycle" unicode="bicycle" horiz-adv-x="921" 
d="M573 428l56 -60c32 20 68 33 108 33c101 0 185 -83 185 -185c0 -101 -84 -184 -185 -184c-91 0 -167 65 -182 153l-83 -5h-1c-7 0 -12 4 -17 8l-170 211l-10 -21c56 -32 96 -92 96 -162c0 -101 -84 -184 -186 -184c-101 0 -184 83 -184 184c0 102 83 185 184 185
c16 0 31 -2 46 -5l42 110l-115 31c-11 3 -19 15 -16 26c4 12 16 20 28 17l138 -39c6 -1 13 -6 15 -12c2 -4 3 -11 1 -17l-10 -23l221 -42l29 87l-40 -3h-1c-12 0 -22 12 -22 23s9 22 22 23l130 6c12 0 23 -10 23 -22c1 -13 -10 -22 -21 -23l-44 -2zM463 249l55 157l-215 39z
M503 226l50 3c2 41 18 78 44 108l-41 44zM166 225l48 128c-9 2 -20 3 -30 3c-77 0 -139 -62 -139 -140c0 -77 62 -139 139 -139s141 62 141 139c0 51 -27 96 -67 120l-50 -127c-5 -11 -18 -16 -30 -12c-11 5 -16 17 -12 28zM737 195l-137 -8c14 -63 69 -110 137 -110
c77 0 140 62 140 139c0 78 -63 140 -140 140c-29 0 -55 -7 -77 -22l93 -103c5 -7 8 -16 4 -23c-3 -8 -11 -13 -20 -13zM598 231l91 5l-62 68c-16 -22 -27 -45 -29 -73z" />
    <glyph glyph-name="bold" unicode="bold" horiz-adv-x="614" 
d="M0 2v-43c34 1 62 2 82 3c20 0 35 1 42 1c53 4 98 7 137 6l90 -2c78 0 136 10 184 32c23 11 43 27 63 49c15 15 26 33 33 53c8 27 12 51 12 73c0 80 -55 148 -163 173c17 8 33 16 44 22s20 10 25 14c38 28 57 61 57 105c0 19 -3 38 -9 55c-12 35 -39 64 -77 82
c-17 10 -33 15 -44 17c-30 8 -59 12 -87 12h-35c-7 0 -13 0 -17 1h-10h-6c-2 0 -5 0 -8 -1h-20l-173 -5l-119 -3l2 -38c28 -4 45 -6 52 -6c14 0 25 -3 31 -7c3 0 5 -2 6 -4c2 -7 4 -22 5 -50c2 -50 2 -90 2 -120c1 -31 1 -52 3 -64v-225c0 -39 -1 -68 -5 -88
c-1 -7 -4 -14 -9 -22c-14 -6 -32 -12 -56 -15c-12 -2 -23 -4 -32 -5zM247 362v79c2 55 0 95 -1 127c-2 14 -2 27 -2 34c24 5 43 7 59 7c52 0 91 -11 117 -35c26 -22 39 -50 39 -85c0 -95 -56 -131 -162 -131c-18 0 -35 1 -50 4zM247 166v144c10 2 24 4 46 4
c51 1 90 -4 114 -14c49 -18 83 -70 83 -139c0 -33 -7 -59 -18 -82c-12 -23 -29 -39 -55 -51c-53 -25 -119 -23 -164 -4c-3 8 -4 14 -4 19z" />
    <glyph glyph-name="book" unicode="book" horiz-adv-x="768" 
d="M0 53v432s54 81 196 81c143 0 188 -77 188 -77s45 77 188 77c142 0 196 -81 196 -81v-432s-95 70 -198 70c-102 0 -186 -75 -186 -75s-84 75 -186 75c-103 0 -198 -70 -198 -70zM65 468v-314s41 31 139 31c97 0 148 -58 148 -58v327s-69 50 -156 50
c-86 0 -131 -36 -131 -36zM416 454v-327s48 58 148 58c99 0 139 -31 139 -31v314s-45 36 -131 36c-87 0 -156 -50 -156 -50z" />
    <glyph glyph-name="bookmark" unicode="bookmark" horiz-adv-x="605" 
d="M39 640h495c40 0 71 -34 71 -75v-506c0 -50 -31 -85 -77 -85h-485c-31 0 -43 24 -43 38v591c0 18 14 37 39 37zM134 16h394c22 0 35 16 35 43v506c0 15 -12 33 -29 33h-47v-383l-138 44l-134 -44v383h-81v-582zM278 438v-37h55v-56h37v56h55v37h-55v56h-37v-56h-55z" />
    <glyph glyph-name="building" unicode="building" horiz-adv-x="607" 
d="M41 655h525c23 0 41 -18 41 -41v-592c0 -23 -18 -41 -41 -41h-135v133h-255v-133h-135c-23 0 -41 18 -41 41v592c0 23 18 41 41 41zM90 521h427v50h-427v-50zM90 406h427v50h-427v-50zM90 291h427v50h-427v-50zM90 176h427v50h-427v-50zM290 -41h-87v128h87v-128z
M404 -41h-87v128h87v-128z" />
    <glyph glyph-name="bus" unicode="bus" horiz-adv-x="665" 
d="M0 106v434c0 14 8 32 19 43c3 3 7 5 10 7h1c48 37 111 64 183 79c38 7 78 11 120 11s82 -4 120 -11c72 -15 135 -42 183 -79h1c3 -2 6 -4 9 -7c11 -11 20 -29 20 -43v-434c0 -32 -22 -57 -51 -64v-58c0 -27 -22 -50 -49 -50c-28 0 -50 23 -50 50v56h-366v-56
c0 -27 -23 -50 -50 -50c-28 0 -50 23 -50 50v58c-29 7 -50 32 -50 64zM500 605h-334c-18 0 -33 -15 -33 -33c0 -17 15 -32 33 -32h334c18 0 32 15 32 32c0 18 -14 33 -32 33zM100 273h465c18 0 33 16 33 34v165c0 18 -15 34 -33 34h-465c-18 0 -32 -16 -32 -34v-165
c0 -18 14 -34 32 -34zM136 106c29 0 52 24 52 53c0 30 -23 53 -52 53c-30 0 -53 -23 -53 -53c0 -29 23 -53 53 -53zM529 106c30 0 54 24 54 53c0 30 -24 53 -54 53c-29 0 -52 -23 -52 -53c0 -29 23 -53 52 -53z" />
    <glyph glyph-name="camera" unicode="camera" horiz-adv-x="737" 
d="M585 540h68c46 0 84 -37 84 -84v-364c0 -46 -38 -84 -84 -84h-569c-46 0 -84 38 -84 84v364c0 47 38 84 84 84h69c17 27 48 66 76 66h279c28 0 60 -39 77 -66zM366 114c103 0 187 84 187 187c0 104 -84 188 -187 188c-104 0 -189 -84 -189 -188c0 -103 85 -187 189 -187z
M369 414c62 0 112 -51 112 -113c0 -61 -50 -112 -112 -112s-113 51 -113 112c0 62 51 113 113 113z" />
    <glyph glyph-name="car" unicode="car" horiz-adv-x="768" 
d="M638 589l114 -229c2 -3 3 -7 4 -10c7 -18 12 -43 12 -59v-109c0 -34 -23 -62 -55 -70v-64c0 -31 -25 -55 -55 -55c-31 0 -55 24 -55 55v62h-438v-62c0 -31 -24 -55 -55 -55c-30 0 -55 24 -55 55v64c-32 8 -55 36 -55 70v109c0 16 5 41 12 59c1 3 2 7 4 10l114 229
c9 17 33 33 53 33h402c20 0 44 -16 53 -33zM177 520l-61 -139c-3 -5 -3 -11 -3 -15h542c0 4 0 10 -3 15l-61 139c-8 18 -32 34 -51 34h-312c-19 0 -43 -16 -51 -34zM150 182c32 0 57 26 57 59c0 32 -25 57 -57 57s-59 -25 -59 -57c0 -33 27 -59 59 -59zM618 182
c32 0 59 26 59 59c0 32 -27 57 -59 57s-57 -25 -57 -57c0 -33 25 -59 57 -59z" />
    <glyph glyph-name="category" unicode="category" horiz-adv-x="550" 
d="M83 666l-55 -56h496l-55 56h-386zM551 390h-551v193h551v-193zM386 445v55h-220v-55h27v28h165v-28h28zM551 169h-551v193h551v-193zM386 224v56h-220v-56h27v28h165v-28h28zM551 -51h-551v192h551v-192zM386 4v55h-220v-55h27v28h165v-28h28z" />
    <glyph glyph-name="check" unicode="check" horiz-adv-x="768" 
d="M620 657l-304 -436l-210 156l-106 -147l358 -273l410 588z" />
    <glyph glyph-name="chrome" unicode="chrome" 
d="M680 466h-322c-31 0 -59 -10 -84 -25c-43 -27 -72 -75 -74 -129l-124 215c66 84 167 139 282 139c141 0 264 -82 322 -200zM60 507l160 -278c1 -1 1 -2 2 -3c14 -25 36 -45 62 -59c23 -11 47 -19 74 -19s52 8 75 19l-125 -215c-174 25 -308 174 -308 355
c0 74 22 143 60 200zM442 441h249c16 -41 26 -87 26 -134c0 -198 -161 -358 -359 -358c-8 0 -15 0 -23 1l160 276c1 1 1 2 2 3c13 24 20 50 20 78v5c-2 54 -32 102 -75 129zM239 307c0 67 52 120 119 120s120 -53 120 -120s-53 -120 -120 -120s-119 53 -119 120z" />
    <glyph glyph-name="cinnamon" unicode="cinnamon" horiz-adv-x="819" 
d="M793 333l26 -26l-26 -17l24 -37l-41 -4c2 0 16 -32 16 -32l-34 5c0 -4 -2 -52 -2 -52l-19 14l2 -26l-26 14l2 -35l-10 9c2 -14 8 -42 10 -43c-5 0 -31 9 -31 9c-2 -8 -6 -43 -6 -43l-21 11l-4 -46l-13 11c4 -30 7 -77 -22 -80c-28 -3 -54 32 -61 59c-2 3 -3 5 -3 5
c-7 -10 -31 -31 -31 -31l-9 28l-16 -20c0 -24 -6 -51 -26 -56c-39 -10 -63 41 -70 57v2c-16 -3 -68 -13 -123 -15c-2 -19 -15 -37 -39 -37c-28 0 -50 24 -54 46c-4 2 -8 3 -12 5c-5 -22 -16 -45 -28 -50c-19 -8 -65 7 -68 31c-1 5 -1 12 -1 19l-37 -13s4 27 7 33l-40 20
s13 13 23 20c2 2 4 3 6 5l-36 18s22 16 32 21c0 0 -25 12 -32 16c0 0 25 18 34 22c1 0 -33 36 -33 36s14 6 24 9c-5 0 -16 23 -23 30c0 0 20 5 34 6l-21 33s33 1 36 1l-14 32s28 -3 36 -7l-12 36l29 -2l-7 38s39 -14 43 -16c0 0 -7 33 0 25c5 -6 33 -34 41 -40
c7 -4 85 -36 103 -41c11 -4 41 10 60 21c-23 6 -59 19 -60 25c5 9 53 11 79 52c26 42 26 85 26 85l-14 15l20 11c-5 2 -28 29 -31 91c-3 22 -19 64 -19 64l14 -7l3 23l18 -19c7 5 13 20 13 20s0 -12 4 -23c12 -4 73 -28 83 -55s24 -36 24 -44c2 7 16 18 16 18l-3 -19
c4 0 87 -10 87 -10l3 20l11 -10s37 63 47 85c10 23 35 42 35 42l-16 -33c12 7 45 26 45 26c-8 -6 -22 -20 -20 -26c13 -24 33 -137 15 -163c32 0 9 -8 9 -8l-11 -7c0 -6 6 -40 19 -55c15 -19 26 -32 33 -36c10 -3 59 -20 59 -20zM742 193l-2 43c12 -3 26 -6 29 -4
c-1 11 -11 19 -10 26c0 0 31 8 34 6c0 0 -22 26 -22 29c0 0 21 8 22 13c2 3 -20 18 -25 26c0 0 19 13 24 16c0 0 -13 3 -24 10c-26 7 -37 31 -41 39c-3 8 -34 49 -35 69c10 32 22 115 -13 165c-5 8 -15 -3 -15 -3c-5 -4 -51 -87 -51 -97c-4 0 -10 0 -10 -5
c-10 2 -100 10 -113 -3c-5 11 -35 74 -70 94c-36 20 -63 16 -63 16c2 -12 3 -99 39 -135c-17 -5 -20 -11 -20 -11l13 -9c-3 -4 -11 -83 -40 -109c-20 -18 -52 -37 -52 -37c3 -4 22 -14 39 -18c9 5 15 10 15 10l-7 -11c7 -1 14 -1 18 1c-20 -14 -30 -24 -30 -24
c2 -2 27 -8 27 -8c-4 -4 -17 -23 -17 -23c0 -1 23 -6 23 -6c-2 -2 -10 -17 -10 -17s23 -2 34 -14c1 -1 0 -1 -1 -1c6 -4 11 -7 14 -9c-8 2 -51 14 -60 13c4 7 9 21 9 21l-28 8l21 24l-30 8c-23 -9 -53 -17 -77 -3c-31 18 -93 33 -93 35c-17 16 -42 20 -42 20l3 -32
c-5 0 -23 -1 -26 2c-2 -3 9 -28 9 -28c2 -2 -32 3 -32 3c0 -3 16 -27 21 -30c-10 1 -39 0 -39 0c0 -2 23 -31 23 -31c-8 0 -33 -6 -33 -6l28 -29c-5 -2 -29 -7 -29 -7c0 -2 24 -30 31 -30c-17 -4 -31 -22 -31 -22s28 -13 31 -13c-6 -4 -30 -24 -30 -24l33 -13
c-11 -8 -28 -24 -28 -24s28 -13 36 -10l-11 -27l20 10c1 15 4 28 8 29c2 1 3 0 6 -5c9 -22 -13 -66 29 -76c31 -8 37 39 42 71c0 0 3 3 6 1c4 0 8 -1 10 -6c1 -2 1 -7 0 -14c49 -17 180 -14 217 -1c-3 11 -4 21 -3 30c3 8 14 -4 14 -4c-4 -35 19 -100 52 -94
c28 6 26 52 25 86l-34 -21c2 1 -10 18 -9 36c0 0 11 -15 18 -21c6 5 14 9 26 21c8 -12 16 -30 16 -30l18 20l11 -23l26 25l18 -23s18 26 18 29c0 0 11 -18 12 -19c4 0 19 35 19 35s15 -12 19 -11c1 7 6 36 6 34l18 -7s9 36 11 41c5 -2 12 -2 17 -5c0 0 -3 2 -4 32l-20 15
l-25 -41l-27 28s-28 -34 -37 -36c-6 5 -4 22 -4 22c-7 -9 -33 -27 -33 -27c0 5 -6 22 -6 22l-32 5c3 0 37 9 37 9l8 -21l30 26s5 -18 5 -21c0 0 34 31 34 35c0 0 20 -30 25 -28c5 4 22 42 22 43c0 0 23 -16 26 -23c0 1 7 28 7 28s26 -18 26 -15l-7 33zM684 496l-19 3
s7 6 12 11c-3 2 -15 5 -24 4c2 6 23 12 19 16c-26 -4 -32 -7 -35 -16c-1 -1 -1 -3 -2 -4c-4 6 -8 12 -8 14c0 8 30 59 41 75c14 20 35 -103 16 -120c-5 4 -10 7 -10 7s11 6 10 10zM421 511l-14 3c-25 26 -27 92 -27 92s21 -6 34 -10c33 -19 51 -79 52 -83l-3 -2
c-7 4 -28 16 -37 19c15 -14 -7 0 -7 0l19 -17c-1 0 -26 11 -26 11c2 -2 9 -13 9 -13zM633 433v1c-4 11 -3 22 1 28c3 4 7 6 11 6c6 0 14 -3 22 -17c10 -20 4 -39 0 -47c-3 -6 -9 -7 -12 -7c-10 0 -14 12 -22 36zM525 465c10 0 22 -9 23 -24c3 -31 -5 -41 -12 -43
c-2 0 -4 -1 -6 -1c-12 0 -15 15 -18 30c-1 5 -2 10 -4 14c-1 6 -1 13 3 17c3 5 8 7 14 7zM540 436c1 3 0 10 -3 14c0 0 -1 0 -1 1c-13 12 -3 -21 1 -19c1 1 2 2 3 4zM735 329c7 0 15 -6 16 -13c1 -4 -2 -8 -6 -11c-7 -9 -18 -14 -31 -14c-7 0 -12 1 -13 1c-2 1 -4 2 -5 4
c0 1 -2 4 -4 9c-2 -2 -4 -3 -6 -4c-4 -4 -9 -7 -15 -9c-10 -4 -22 -6 -34 -6c-25 0 -53 7 -62 16c-3 3 -8 8 -6 15c2 4 7 7 11 7c3 0 8 -3 17 -6c9 -4 21 -8 29 -9c4 -1 8 -1 12 -1c14 0 29 3 38 8c3 2 5 6 7 10v7c0 4 -1 8 -1 11c-4 2 -8 4 -11 7c-4 4 -11 7 -17 10
c-9 5 -17 10 -17 18c0 2 0 7 5 11c11 8 40 8 43 8c6 0 17 0 23 -3c15 -6 22 -8 23 -16c2 -7 -3 -13 -9 -19c-5 -4 -10 -9 -16 -12v-5c0 -9 1 -11 1 -11c7 -11 12 -16 14 -17l1 1c1 9 8 13 13 13z" />
    <glyph glyph-name="circle" unicode="circle" 
d="M441 664c153 0 276 -124 276 -276c0 -143 -111 -262 -251 -274c-32 -94 -121 -163 -226 -163c-132 0 -240 107 -240 239c0 108 71 198 168 229c15 137 132 245 273 245zM78 507c-43 0 -78 35 -78 78s35 78 78 78s77 -35 77 -78s-34 -78 -77 -78zM78 626
c-23 0 -41 -18 -41 -41s18 -41 41 -41s41 18 41 41s-18 41 -41 41zM478 188c95 17 167 101 167 200c0 113 -91 204 -204 204c-98 0 -180 -70 -198 -163c130 -1 235 -108 235 -239v-2zM403 188v2c0 90 -72 163 -162 164c14 -84 79 -151 162 -166zM240 27c65 0 119 37 147 91
c-111 23 -197 110 -216 221c-56 -26 -95 -83 -95 -149c0 -91 73 -163 164 -163z" />
    <glyph glyph-name="clear" unicode="clear" horiz-adv-x="768" 
d="M438 524v127c0 23 -17 40 -39 40h-30c-22 0 -39 -17 -39 -40v-127c0 -22 17 -40 39 -40h30c22 0 39 18 39 40zM269 500l-90 89c-15 15 -41 15 -56 0l-21 -21c-15 -15 -15 -41 0 -56l89 -90c15 -15 42 -15 57 0l21 21c15 15 15 42 0 57zM577 422l89 90c15 15 15 41 0 56
l-21 21c-15 15 -41 15 -56 0l-90 -89c-15 -15 -15 -42 0 -57l21 -21c15 -15 42 -15 57 0zM40 253h127c22 0 40 17 40 39v31c0 22 -18 38 -40 38h-127c-23 0 -40 -16 -40 -38v-31c0 -22 17 -39 40 -39zM601 253h127c23 0 40 17 40 39v31c0 22 -17 38 -40 38h-127
c-22 0 -40 -16 -40 -38v-31c0 -22 18 -39 40 -39zM179 26l90 89c15 15 15 41 0 56l-21 22c-15 15 -42 15 -57 0l-89 -91c-15 -15 -15 -41 0 -56l21 -20c15 -15 41 -15 56 0zM666 102l-89 91c-15 15 -42 15 -57 0l-21 -22c-15 -15 -15 -41 0 -56l90 -89c15 -15 41 -15 56 0
l21 20c15 15 15 41 0 56zM438 -37v127c0 22 -17 40 -39 40h-30c-22 0 -39 -18 -39 -40v-127c0 -23 17 -40 39 -40h30c22 0 39 17 39 40z" />
    <glyph glyph-name="clip" unicode="clip" 
d="M175 285l280 280c3 3 27 27 65 40c53 17 107 3 150 -40c44 -43 57 -96 40 -149c-12 -38 -37 -64 -40 -67l-301 -301c-52 -52 -182 -119 -302 0c-119 119 -51 250 0 301l323 324c12 12 31 12 43 0s12 -31 0 -43l-322 -324c-5 -4 -106 -109 0 -215c103 -103 204 -11 215 0
l301 302s17 17 25 41c10 32 3 60 -25 88c-60 60 -118 10 -129 0l-280 -279c-10 -10 -17 -27 0 -44s33 -9 43 0l194 194c12 11 32 11 43 0c12 -12 12 -32 0 -44l-194 -193c-27 -26 -82 -47 -129 0c-48 47 -27 103 0 129z" />
    <glyph glyph-name="cloud" unicode="cloud" horiz-adv-x="819" 
d="M343 34h-172c-94 0 -171 77 -171 171c0 71 43 130 103 156c0 5 -1 10 -1 15c0 56 47 102 103 102c34 0 64 -17 83 -42c31 84 112 145 207 145c122 0 220 -99 222 -220c60 -27 102 -86 102 -156c0 -94 -77 -171 -171 -171h-167v100h81c12 0 16 8 7 17l-141 151
c-4 4 -10 7 -16 7s-13 -3 -17 -7l-141 -151c-8 -9 -6 -17 7 -17h82v-100z" />
    <glyph glyph-name="code" unicode="code" horiz-adv-x="768" 
d="M159 309l172 -173l-83 -80l-248 248l254 254l79 -78zM609 305l-172 173l83 80l248 -248l-254 -254l-79 78z" />
    <glyph glyph-name="comment" unicode="comment" 
d="M80 645h557c44 0 80 -36 80 -80v-338c0 -44 -36 -80 -80 -80h-106l5 -137c0 -33 -18 -41 -42 -18l-157 155h-257c-44 0 -80 36 -80 80v338c0 44 36 80 80 80z" />
    <glyph glyph-name="comments" unicode="comments" horiz-adv-x="768" 
d="M227 147l-130 -87s27 72 29 124c-77 41 -126 108 -126 183c0 125 139 227 310 227c142 0 262 -71 299 -166c-14 2 -28 3 -42 3h-14c-70 -3 -135 -26 -185 -65c-55 -44 -85 -106 -83 -168c1 -19 5 -40 12 -58c-24 0 -47 3 -70 7zM708 20l-85 46c-17 -4 -37 -7 -55 -8h-12
c-109 0 -197 63 -200 143c-4 83 86 154 200 158h11c109 0 198 -61 201 -142c2 -49 -28 -93 -77 -123c2 -35 17 -74 17 -74z" />
    <glyph glyph-name="compass" unicode="compass" 
d="M358 666c198 0 359 -161 359 -359s-161 -358 -359 -358s-358 160 -358 358s160 359 358 359zM358 32c152 0 276 123 276 275s-124 276 -276 276s-275 -124 -275 -276s123 -275 275 -275zM417 249l-214 -97l97 214l214 97zM242 190l155 78l-78 78z" />
    <glyph glyph-name="cookpad" unicode="cookpad" 
d="M358 666c198 0 359 -161 359 -359s-161 -358 -359 -358s-358 160 -358 358s160 359 358 359zM358 -14c177 0 322 144 322 321s-145 322 -322 322s-321 -145 -321 -322s144 -321 321 -321zM462 468c-16 39 -55 69 -105 69c-40 0 -79 -27 -93 -52
c-79 36 -161 -28 -161 -103c0 -52 31 -87 75 -109c-5 -45 -13 -97 -18 -141c-2 -15 -6 -33 4 -45c25 -6 52 -3 80 -3h244c17 8 14 29 16 43c5 45 12 95 18 138c73 -2 123 46 123 114c0 89 -100 147 -183 89zM433 439c0 -9 -6 -11 -6 -18c9 -6 20 -14 32 -18
c10 30 44 57 85 51c40 -5 66 -46 63 -85c-3 -33 -34 -66 -82 -67c3 20 4 41 -15 42c-20 0 -22 -31 -25 -58c-4 -29 -5 -57 -8 -74h-198c-28 0 -57 4 -53 -24c3 -16 29 -13 53 -13c62 0 135 2 193 -1c-2 -18 -4 -37 -7 -53h-268c8 60 15 124 23 184c-45 2 -84 36 -79 87
c8 69 106 88 141 32c2 38 30 71 65 75c41 5 76 -21 86 -60z" />
    <glyph glyph-name="copy" unicode="copy" horiz-adv-x="696" 
d="M572 632l105 -109c10 -11 19 -34 19 -49v-323c0 -15 -12 -29 -28 -29h-187v49h157c5 0 9 4 9 9v272c0 5 -4 9 -9 9h-116c-5 0 -10 4 -10 9v124c0 5 -4 9 -9 9h-190c-5 0 -10 -4 -10 -9v-69c-10 4 -23 6 -33 6h-15v93c0 16 13 28 28 28h242c15 0 37 -9 47 -20zM570 510h42
c5 0 6 3 3 7l-48 49c-3 4 -6 3 -6 -2v-45c0 -5 4 -9 9 -9zM318 472l104 -110c11 -11 19 -33 19 -48v-323c0 -16 -12 -29 -27 -29h-385c-16 0 -29 13 -29 29v473c0 15 13 29 29 29h241c15 0 37 -10 48 -21zM58 11h325c5 0 10 4 10 9v272c0 5 -5 9 -10 9h-116c-5 0 -9 4 -9 9
v124c0 5 -4 9 -9 9h-191c-5 0 -9 -4 -9 -9v-414c0 -5 4 -9 9 -9zM360 356l-47 51c-4 4 -7 1 -7 -4v-44c0 -5 5 -9 10 -9h41c5 0 7 3 3 6z" />
    <glyph glyph-name="crop" unicode="crop" 
d="M591 140h126v-65h-126v-126h-66v126h-399v399h-126v66h126v126h65v-126h374l74 73l35 -35l-83 -83v-355zM191 166l309 308h-309v-308zM525 429l-288 -289h288v289z" />
    <glyph glyph-name="crown" unicode="crown" horiz-adv-x="768" 
d="M384 469c-44 0 -80 36 -80 80c0 45 36 80 80 80s80 -35 80 -80c0 -44 -36 -80 -80 -80zM65 502c35 0 63 -29 63 -64c0 -36 -28 -64 -63 -64c-36 0 -65 28 -65 64c0 35 29 64 65 64zM705 502c35 0 63 -29 63 -64c0 -36 -28 -64 -63 -64c-36 0 -65 28 -65 64
c0 35 29 64 65 64zM135 60l-53 290c16 3 31 12 43 22c33 -30 75 -59 115 -59c48 0 87 74 114 136c9 -3 20 -6 30 -6s21 3 30 6c27 -62 66 -136 114 -136c40 0 82 29 115 59c12 -10 27 -19 43 -22l-53 -290h-498zM124 35h520v-49h-520v49z" />
    <glyph glyph-name="cut" unicode="cut" 
d="M184 258h-4c-42 0 -87 -20 -121 -53c-35 -32 -59 -75 -59 -118c0 -49 35 -79 83 -79c41 0 87 21 122 53c34 33 58 75 58 118c0 5 0 12 -1 17l32 28l314 -161c5 -2 10 -4 15 -4c7 0 20 4 34 6c13 3 27 6 35 7c14 2 25 15 25 29c0 10 -5 19 -14 25l-261 181l261 181
c9 6 14 15 14 25c0 14 -11 28 -25 30c-4 0 -9 1 -15 3c-12 3 -28 5 -40 7s-21 2 -29 -2c-2 -1 -8 -4 -19 -9c-10 -5 -23 -12 -38 -20s-32 -16 -50 -26c-18 -9 -39 -19 -57 -29c-38 -19 -75 -38 -103 -52c-14 -7 -26 -14 -35 -18c-8 -4 -12 -7 -12 -7l-32 29c1 5 1 11 1 16
c0 43 -24 86 -58 118c-35 32 -81 53 -122 53c-48 0 -83 -30 -83 -79c0 -42 24 -85 60 -118c36 -34 82 -56 124 -53c4 -6 13 -14 22 -22s17 -17 23 -23v-8c-6 -6 -13 -13 -23 -22c-9 -8 -17 -17 -22 -23zM74 527v3c3 1 6 1 9 1c24 0 50 -15 67 -29c8 -7 18 -19 25 -31
c8 -12 15 -26 15 -37v-2c-5 -1 -8 -1 -10 -1c-24 0 -48 15 -66 30c-7 7 -18 17 -26 29s-14 26 -14 37zM219 251l41 40l-2 48l365 186l64 -12l-380 -262l-17 9l-40 -36c-7 11 -18 20 -31 27zM232 351l-13 14c13 5 24 14 31 25l16 -14c-15 -7 -28 -11 -34 -25zM278 307
c0 -16 13 -29 29 -29c17 0 30 13 30 29c0 17 -13 30 -29 30c-18 0 -30 -13 -30 -30zM338 236l77 53l272 -188l-64 -12zM75 87c0 22 15 47 37 65s48 32 68 32c3 0 6 -1 8 -1v-2c1 0 1 -1 1 -2c0 -22 -15 -46 -37 -64s-47 -32 -69 -32h-4c-1 1 -2 1 -4 1v3z" />
    <glyph glyph-name="dashboard" unicode="dashboard" 
d="M105 8h506c9 0 18 4 23 11c27 30 47 68 61 107c14 40 22 82 22 122c0 98 -40 187 -105 253c-66 66 -155 105 -254 105s-188 -39 -254 -105c-65 -66 -104 -154 -104 -253c0 -40 8 -82 22 -122c14 -39 33 -77 61 -107c5 -7 12 -11 22 -11zM313 501c0 26 20 45 45 45
s45 -19 45 -45c0 -25 -20 -44 -45 -44s-45 19 -45 44zM134 427c0 25 20 44 45 44s45 -19 45 -44s-20 -45 -45 -45s-45 20 -45 45zM493 427c0 25 20 44 45 44c26 0 45 -19 45 -44s-19 -44 -45 -44c-25 0 -45 19 -45 44zM355 202l52 186c3 9 11 16 22 16s22 -10 22 -21
c0 -2 -2 -7 -4 -16c-3 -10 -5 -22 -9 -34c-3 -13 -7 -28 -11 -42c-9 -31 -18 -60 -23 -80c-3 -10 -5 -19 -6 -22c20 -14 35 -36 35 -61c0 -42 -33 -75 -75 -75s-74 33 -74 75c0 19 7 38 20 51s32 22 51 23zM60 248c0 25 19 44 44 44s46 -19 46 -44s-21 -45 -46 -45
s-44 20 -44 45zM567 248c0 25 20 44 45 44s44 -19 44 -44s-19 -45 -44 -45s-45 20 -45 45z" />
    <glyph glyph-name="delicious" unicode="delicious" horiz-adv-x="665" 
d="M303 332h-303v303h303v-303zM655 332h-303v303h303v-303zM272 604h-241v-242h241v242zM303 -20h-303v303h303v-303zM352 -20v303h303v-303h-303zM399 252h-16v-16zM440 252l-57 -57v-41l98 98h-41zM522 252l-139 -139v-41l180 180h-41zM383 10h19l223 222v20h-21
l-221 -221v-21zM484 10l141 141v40l-182 -181h41zM566 10l59 59v41l-100 -100h41zM607 10h18v18z" />
    <glyph glyph-name="down" unicode="down" 
d="M356 297l246 246l115 -119l-355 -354l-362 362l112 113z" />
    <glyph glyph-name="dribbble" unicode="dribbble" 
d="M358 666c198 0 359 -161 359 -359s-161 -358 -359 -358s-358 160 -358 358s160 359 358 359zM358 613c-25 0 -48 -3 -71 -9c4 -5 61 -82 113 -178c116 43 160 110 160 111c-53 48 -124 76 -202 76zM227 584c-85 -40 -149 -119 -168 -213c7 -1 136 -2 282 37
c-52 94 -110 171 -114 176zM595 502c-1 -1 -50 -72 -171 -121c7 -15 14 -30 20 -45c2 -5 6 -10 8 -15c104 13 208 -10 213 -11c-1 73 -27 140 -70 192zM52 307c0 -79 30 -151 79 -205c0 0 83 150 249 203c4 1 8 2 11 3c-7 17 -15 35 -24 52c-158 -47 -309 -44 -315 -44v-9z
M529 53l1 1c69 46 117 120 130 205c-6 2 -92 28 -190 13c40 -111 56 -201 59 -219zM477 26h1c-5 27 -22 120 -65 232c-1 0 -1 -1 -2 -1c-174 -60 -236 -181 -240 -190l6 -7c51 -37 113 -59 181 -59c42 0 83 9 119 25z" />
    <glyph glyph-name="dropdown" unicode="dropdown" horiz-adv-x="614" 
d="M602 454l-253 -317c-24 -29 -61 -29 -84 0l-253 317c-24 30 -12 53 25 53h540c38 0 49 -23 25 -53z" />
    <glyph glyph-name="edit" unicode="edit" horiz-adv-x="757" 
d="M558 100v129l80 80v-235c0 -47 -39 -86 -85 -86h-468c-47 0 -85 39 -85 86v467c0 47 38 86 85 86h475v-1l-80 -79h-368c-17 0 -32 -15 -32 -33v-414c0 -18 15 -32 32 -32h414c17 0 32 14 32 32zM634 588l85 -85l39 39l-85 85zM335 288l84 -85l271 271l-84 85zM275 144
l116 31l-85 85z" />
    <glyph glyph-name="eject" unicode="eject" horiz-adv-x="665" 
d="M13 274l274 343c26 31 66 31 91 0l274 -343c26 -32 14 -57 -27 -57h-585c-40 0 -53 25 -27 57zM50 -34h565c28 0 51 22 51 51v67c0 28 -23 50 -51 50h-565c-28 0 -50 -22 -50 -50v-67c0 -29 22 -51 50 -51z" />
    <glyph glyph-name="etc" unicode="etc" 
d="M176 307c0 48 -40 88 -88 88c-49 0 -88 -40 -88 -88s39 -88 88 -88c48 0 88 40 88 88zM446 307c0 48 -40 88 -88 88s-88 -40 -88 -88s40 -88 88 -88s88 40 88 88zM717 307c0 48 -39 88 -88 88c-48 0 -88 -40 -88 -88s40 -88 88 -88c49 0 88 40 88 88z" />
    <glyph glyph-name="evernote" unicode="evernote" horiz-adv-x="617" 
d="M65 511h69c15 0 28 13 28 28c0 0 -1 14 -1 31v44c0 13 3 24 9 32c8 12 23 20 37 24c16 5 82 9 125 -8c16 -6 31 -27 34 -47c25 1 65 1 100 -3c44 -5 78 -11 95 -17c16 -5 34 -20 39 -49c9 -50 21 -250 15 -317c-10 -104 -25 -167 -32 -187c-33 -103 -62 -107 -143 -107
c-102 0 -134 16 -134 99c0 91 43 93 116 91c10 -1 -1 -11 -1 -29c0 -17 7 -24 -3 -24c-20 0 -49 3 -49 -26c0 -35 17 -34 61 -34c55 0 66 8 66 58c0 82 -23 94 -56 98c-35 4 -70 9 -87 15c-42 15 -39 72 -39 87c0 3 -4 2 -4 0c0 -23 -1 -53 -13 -89c-3 -10 -6 -16 -6 -16
c-13 -29 -36 -18 -72 -14c-36 5 -111 20 -145 34c-14 7 -20 14 -28 30c-19 41 -40 175 -43 194c-3 25 -3 36 -3 36c0 16 2 31 11 44c4 6 11 12 20 16c8 3 20 6 34 6zM131 531h-70c-16 0 -31 -3 -43 -8c0 -1 -4 -3 -7 -4l1 1l134 133h1l-2 -4c-5 -9 -8 -22 -8 -35
c0 -17 1 -75 1 -75c0 -4 -3 -8 -7 -8zM460 325c18 0 36 -5 49 -11c0 20 -4 53 -37 54c-30 1 -39 -24 -41 -44c9 1 19 2 29 1z" />
    <glyph glyph-name="exchange" unicode="exchange" horiz-adv-x="798" 
d="M696 164h81c24 0 28 -14 11 -30l-118 -119c-10 -11 -29 -11 -40 0l-119 119c-16 16 -12 30 12 30h81v294c-4 41 -38 72 -80 72c-43 0 -78 -33 -80 -75v-296c-3 -62 -40 -117 -92 -145c-24 -12 -50 -18 -79 -18s-54 6 -78 18c-53 28 -91 83 -93 146v290h-80
c-24 0 -29 13 -12 29l118 119c11 11 30 11 40 0l119 -119c17 -16 12 -29 -12 -29h-80v-291c2 -42 35 -76 78 -76s79 36 79 79v293c3 63 39 116 92 144c24 12 51 19 80 19s55 -7 80 -19c51 -27 87 -79 92 -140v-295z" />
    <glyph glyph-name="external" unicode="external" horiz-adv-x="665" 
d="M501 547l-334 -336l70 -71l335 335l62 -61c17 -17 32 -12 32 14v181c0 16 -14 31 -31 31h-181c-26 0 -32 -15 -15 -32zM538 82v227h76v-253c0 -45 -37 -82 -82 -82h-450c-45 0 -82 37 -82 82v451c0 45 37 82 82 81h277v-76h-251c-16 0 -31 -15 -31 -31v-399
c0 -16 15 -31 31 -31h399c16 0 31 15 31 31z" />
    <glyph glyph-name="facebook" unicode="facebook" horiz-adv-x="665" 
d="M38 640h590c20 0 38 -18 38 -38v-590c0 -20 -18 -38 -38 -38h-590c-20 0 -38 18 -38 38v590c0 20 18 38 38 38zM473 266h92l4 88h-96v61v4c0 25 5 39 37 39h56l2 82s-25 4 -61 4c-88 0 -127 -55 -127 -114v-76h-65v-88h65v-244h93v244z" />
    <glyph glyph-name="file" unicode="file" horiz-adv-x="596" 
d="M430 638l141 -148c14 -15 26 -43 26 -65v-438c0 -20 -16 -38 -38 -38h-521c-20 0 -38 18 -38 38v641c0 20 18 38 38 38h328c22 0 50 -13 64 -28zM79 15h439c7 0 13 6 13 13v366c0 7 -6 13 -13 13h-157c-7 0 -13 6 -13 13v167c0 7 -5 12 -12 12h-257c-7 0 -12 -5 -12 -12
v-559c0 -7 5 -13 12 -13zM487 482l-63 68c-5 5 -9 3 -9 -4v-61c0 -6 6 -12 12 -12h56c7 0 9 4 4 9zM156 540h124c13 0 25 -12 25 -26v-15c0 -13 -12 -25 -25 -25h-124c-14 0 -26 12 -26 25v15c0 14 12 26 26 26zM156 406h124c13 0 25 -12 25 -26v-15c0 -13 -12 -25 -25 -25
h-124c-14 0 -26 12 -26 25v15c0 14 12 26 26 26zM439 206h-283c-14 0 -26 11 -26 25v15c0 14 12 25 26 25h283c13 0 26 -11 26 -25v-15c0 -14 -13 -25 -26 -25zM439 69h-283c-14 0 -26 11 -26 24v16c0 14 12 25 26 25h283c13 0 26 -11 26 -25v-16c0 -13 -13 -24 -26 -24z
" />
    <glyph glyph-name="firefox" unicode="firefox" horiz-adv-x="798" 
d="M444 -63h-1c-1 -1 -1 -2 -2 -2c-3 -6 -10 -10 -17 -10c-17 1 -37 2 -55 5c-2 0 -5 1 -7 1c-3 -3 -8 -5 -13 -5h-3c-23 4 -48 12 -72 22c-19 8 -37 16 -53 26c-57 30 -107 74 -144 128c-27 37 -46 80 -57 124c-9 1 -16 9 -16 17c-1 13 -2 27 -2 40c0 19 1 39 3 56
c-4 4 -6 10 -5 16c4 35 15 70 29 102c5 13 11 25 18 36c-1 8 -1 15 -1 23c0 42 14 82 42 114c3 4 8 6 14 6h6c7 -2 12 -8 13 -15c2 -14 7 -28 15 -39c67 67 159 107 260 107c60 0 117 -14 167 -40c43 -16 82 -41 114 -74c1 2 2 5 4 6c3 4 8 6 13 6c4 0 9 -1 12 -3
c22 -16 40 -40 52 -69c13 -29 21 -61 23 -96c0 -4 1 -8 1 -13c6 -2 12 -8 13 -15c3 -15 4 -32 4 -47c0 -50 -11 -98 -34 -142c-2 -6 -4 -13 -6 -18c4 -4 7 -9 7 -15v-3c-6 -48 -48 -101 -106 -137c-6 -4 -12 -8 -18 -11c1 -6 -1 -12 -5 -16c-31 -34 -89 -57 -157 -64
c-12 -1 -25 -1 -36 -1zM574 186l-21 -28c-4 -3 -9 -5 -13 -7c-1 0 -2 0 -3 1c-3 3 -2 10 1 17c-4 -3 -10 -7 -15 -11c-10 -8 -18 -17 -24 -25c-3 -1 -7 -2 -10 -2c3 3 6 6 8 10c-18 -9 -43 -15 -67 -15h-4c-6 1 -12 1 -17 2c-19 3 -39 9 -56 18c0 0 -1 0 -2 1c5 1 10 1 15 1
s9 0 13 -1c-9 4 -21 8 -33 8h-4h-1c-1 0 -1 0 -2 -1c-47 28 -83 72 -88 119c-3 27 0 50 12 73c-7 1 -14 2 -22 2c-12 0 -25 -2 -36 -5c-5 -1 -8 -2 -11 -3c-1 3 -4 6 -5 9c16 6 35 9 52 9c10 0 20 -1 29 -2c1 -1 3 -1 4 -1l1 -1h5c0 -1 0 -1 1 -1s2 0 3 -1h1c1 0 2 -1 3 -1
h1c1 -1 2 -1 3 -1c0 -1 1 -1 1 -1c1 0 2 -1 3 -1c0 0 1 0 1 -1c1 0 2 0 3 -1h1c2 -1 3 -1 4 -2c3 7 4 15 4 23v3c0 8 -2 16 -5 23c-2 4 -5 9 -7 13c-12 19 -18 42 -18 68c0 47 23 90 60 116c-5 0 -10 1 -14 1c-37 0 -69 -17 -89 -45c-12 3 -34 5 -45 5
c-48 0 -91 -22 -120 -58c-10 -13 -19 -28 -25 -43c-13 -30 -24 -63 -28 -98c4 12 10 24 16 34c-8 -28 -12 -63 -12 -103c0 -12 0 -26 1 -38c1 16 4 32 6 45c11 -131 89 -243 202 -299c14 -9 33 -18 51 -26c24 -9 47 -16 67 -19c-10 4 -21 9 -31 14c5 -1 11 -2 17 -3
c11 -3 24 -6 37 -8c18 -3 36 -4 52 -4c-5 2 -11 4 -17 7c12 1 24 2 35 3h2c11 0 23 1 34 2c65 6 119 29 146 58c-14 -7 -32 -13 -50 -17c16 9 34 20 48 31c9 5 19 10 28 16c55 34 92 82 98 124c-8 -14 -21 -29 -38 -42c15 26 29 53 38 82c20 41 31 87 31 135
c0 15 -1 30 -3 44v-6c0 -22 -4 -41 -11 -58c-1 15 -2 32 -4 46c2 15 3 32 2 48c-4 67 -31 121 -69 150c19 -20 32 -51 32 -86c0 -3 0 -5 -1 -8c-38 85 -116 150 -210 169c53 -27 98 -70 127 -122c-19 18 -43 34 -71 41c46 -42 76 -101 78 -169c0 -8 0 -17 -1 -25
c-7 18 -20 34 -33 47c4 -22 8 -44 8 -69c1 -35 -3 -68 -10 -99c-3 15 -7 30 -12 42c0 -4 0 -8 -1 -11c-2 -36 -12 -68 -26 -92zM102 617c-24 -28 -37 -62 -37 -101v-2l4 4s1 1 1 2c2 1 3 2 4 3l1 1s2 2 4 3v1c2 1 3 2 5 4c2 1 3 3 5 4v1c5 3 11 7 16 10c8 4 17 8 26 12
c-3 2 -5 5 -8 8c0 1 0 1 -1 2c0 0 0 1 -1 1c0 1 -1 1 -1 2l-1 1c0 1 -1 2 -1 2c0 1 -1 2 -1 3l-1 1c0 1 -1 1 -1 2s-1 2 -1 2c0 1 -1 2 -1 2c0 1 -1 1 -1 2s0 1 -1 2v1c-1 1 -1 2 -1 2c-1 1 -1 1 -1 2s-1 1 -1 2v1c-1 1 -2 3 -2 4c0 0 -1 0 -1 1v2c-1 1 -1 1 -1 2v2l-1 1v3
c0 0 0 1 -1 1v4zM390 473c-1 15 -47 11 -65 11c-9 0 -19 5 -26 10c-1 -6 -2 -14 -2 -20c0 -20 5 -41 15 -58c3 -4 5 -8 7 -12c16 11 40 23 48 29c13 10 24 24 23 40zM426 282c-47 0 -47 -21 -90 -21c-22 0 -51 11 -68 38c0 -7 0 -16 1 -24c4 -32 26 -65 58 -90
c20 1 42 6 53 10c30 10 53 33 70 39c7 3 21 -5 28 9c6 11 -20 39 -52 39z" />
    <glyph glyph-name="flag" unicode="flag" horiz-adv-x="642" 
d="M108 -33v565c23 14 35 36 35 62c0 39 -32 72 -71 72c-40 0 -72 -33 -72 -72c0 -26 14 -48 37 -62v-565c0 -10 7 -18 16 -18h37c10 0 18 8 18 18zM143 500v-324c0 -19 10 -27 22 -18c23 17 43 30 61 39c37 17 63 25 87 26c30 0 53 -6 76 -17c22 -10 42 -26 65 -41
c13 -8 29 -13 47 -14c30 -2 72 5 121 45c11 9 20 32 20 49v324c0 19 -8 26 -20 17c-25 -19 -48 -32 -68 -38c-41 -11 -73 -9 -100 7c-23 15 -43 31 -65 41c-23 11 -46 17 -76 17c-11 0 -25 -3 -40 -7c-27 -8 -62 -25 -108 -57c-12 -9 -22 -31 -22 -49z" />
    <glyph glyph-name="flickr" unicode="flickr" horiz-adv-x="665" 
d="M84 640h498c47 0 84 -37 84 -84v-498c0 -25 -10 -44 -25 -59c-14 -14 -36 -25 -59 -25h-498c-47 0 -84 37 -84 84v498c0 23 11 45 25 59c15 15 34 25 59 25zM195 197c62 0 113 50 113 112s-51 113 -113 113c-61 0 -113 -51 -113 -113s52 -112 113 -112zM471 197
c61 0 113 50 113 112s-52 113 -113 113c-62 0 -114 -51 -114 -113s52 -112 114 -112z" />
    <glyph glyph-name="folder" unicode="folder" 
d="M380 508h305c17 0 32 -15 32 -32v-423c0 -17 -15 -31 -32 -31h-653c-17 0 -32 14 -32 31v423c0 17 15 32 32 32h34l16 53c0 17 15 32 32 32h218c17 0 32 -15 32 -32z" />
    <glyph glyph-name="foursquare" unicode="foursquare" horiz-adv-x="665" 
d="M356 116l156 155c11 11 12 29 3 42l151 127v-466h-666v666h554l-154 -212l-44 44c-12 12 -33 12 -45 0l-9 -9c-25 40 -70 66 -120 66c-78 0 -140 -62 -140 -140c0 -76 60 -137 135 -140l134 -133c12 -13 33 -13 45 0zM326 204l-86 68c24 12 44 32 57 56
c15 -20 26 -34 27 -35c1 -2 4 -4 7 -4s6 1 9 5l252 346h74v-160l-329 -277c-2 -1 -4 -2 -5 -2c-4 0 -6 3 -6 3zM182 499c60 0 110 -49 110 -110c0 -60 -50 -109 -110 -109s-109 49 -109 109c0 61 49 110 109 110z" />
    <glyph glyph-name="forward" unicode="forward" horiz-adv-x="768" 
d="M494 616v-124c-530 0 -493 -494 -493 -494c104 345 493 245 493 245v-127l274 254z" />
    <glyph glyph-name="friend" unicode="friend" horiz-adv-x="818" 
d="M552 163c41 -23 64 -61 60 -100c-2 -24 -1 -24 -32 -28c-19 -2 -140 -3 -263 -3c-140 0 -286 1 -297 4c-41 11 -17 87 37 123c43 27 130 69 154 74c33 7 37 28 0 91c-8 15 -17 58 -18 104c-1 74 12 124 77 149c12 4 26 6 39 6c43 0 83 -24 100 -59
c23 -47 12 -170 -12 -215c-29 -51 -26 -67 6 -75c20 -5 86 -36 149 -71zM771 226c32 -17 50 -48 47 -78c-1 -18 -1 -19 -25 -22c-12 -2 -75 -3 -149 -3c-13 31 -38 59 -72 77c-39 22 -85 45 -120 60c23 11 43 20 52 22c25 6 28 20 0 70c-7 12 -15 46 -16 82
c-1 58 12 98 62 117c10 3 21 5 31 5c33 0 64 -18 77 -46c17 -37 9 -133 -9 -169c-22 -40 -20 -52 5 -58c16 -4 67 -29 117 -57z" />
    <glyph glyph-name="frustrate" unicode="frustrate" 
d="M358 656c198 0 359 -155 359 -349s-161 -349 -359 -349s-358 155 -358 349s160 349 358 349zM120 345l8 -21c3 -7 11 -12 19 -9l175 63c7 3 9 8 10 21c2 13 0 19 -7 23l-160 92c-7 4 -17 2 -21 -5l-11 -20c-4 -7 -2 -16 5 -20l108 -62l-117 -42c-7 -3 -11 -12 -9 -20z
M589 324l8 21c2 8 -2 17 -9 20l-117 42l108 62c7 4 9 13 5 20l-12 20c-4 7 -13 9 -20 5l-160 -92c-7 -4 -9 -10 -7 -23c1 -13 3 -18 10 -21l174 -63c8 -3 17 2 20 9zM530 99c20 7 31 32 24 52c-32 81 -109 133 -196 133s-163 -52 -195 -133c-7 -20 3 -45 23 -52
c20 -8 325 -8 344 0z" />
    <glyph glyph-name="full" unicode="full" horiz-adv-x="665" 
d="M338 382l70 -69c4 -4 8 -6 14 -6c5 0 9 2 13 6l119 118l72 -72c23 -22 40 -13 40 18v226c0 19 -16 37 -38 37h-226c-32 0 -40 -17 -17 -40l72 -72l-119 -118c-3 -4 -5 -9 -5 -14c0 -6 2 -10 5 -14zM0 238v-227c0 -19 16 -37 38 -37h225c32 0 41 17 18 40l-72 72l119 119
c3 4 5 8 5 14c0 5 -2 9 -5 13l-70 70c-4 3 -8 5 -14 5c-5 0 -10 -2 -14 -5l-118 -119l-72 72c-23 22 -40 14 -40 -17z" />
    <glyph glyph-name="game" unicode="game" 
d="M143 558v72h72v-72h-72zM502 630h71v-72h-71v72zM645 415v143h72v-287h-72v-71h-72v-72h72v-72h72v-71h-144v71h-71v72h-287v-72h-72v-71h-143v71h72v72h71v72h-71v71h-72v287h72v-143h71v71h72v72h72v-72h143v72h72v-72h71v-71h72zM287 343v72h-72v-72h72zM502 343v72
h-72v-72h72z" />
    <glyph glyph-name="gear" unicode="gear" 
d="M649 523l-68 -69c18 -28 31 -60 37 -94h99v-106h-99c-6 -34 -19 -65 -37 -93l68 -70l-75 -75l-69 69c-28 -18 -59 -32 -93 -38v-98h-107v98c-34 6 -65 20 -93 38l-70 -69l-74 75l68 70c-18 28 -32 59 -38 93h-98v106h98c6 34 20 66 38 94l-68 69l74 75l70 -69
c28 18 59 32 93 38v99h107v-99c34 -6 65 -20 93 -38l69 69zM358 159c82 0 149 66 149 148s-67 149 -149 149s-147 -67 -147 -149s65 -148 147 -148z" />
    <glyph glyph-name="geo" unicode="geo" 
d="M358 666c198 0 359 -161 359 -359s-161 -358 -359 -358s-358 160 -358 358s160 359 358 359zM383 155v-115c129 11 232 115 243 243h-114v47h114c-10 130 -114 233 -243 244v-115h-47v115c-130 -10 -235 -114 -245 -244h116v-47h-116c11 -129 115 -233 245 -244v116h47z
" />
    <glyph glyph-name="github" unicode="github" horiz-adv-x="768" 
d="M754 164l-2 -8c-3 -8 -7 -16 -10 -24c0 -2 -2 -6 -3 -8c-32 -71 -92 -105 -185 -122c-5 -1 -14 -3 -23 -4c-90 -11 -158 -13 -248 -5c-3 0 -7 1 -9 1c-125 14 -199 59 -238 131c-1 1 -3 4 -4 8c-4 7 -7 16 -10 23c-2 4 -3 6 -4 9c-13 37 -18 80 -18 128
c0 84 26 117 61 162c-27 96 11 162 11 162s57 12 165 -65c58 25 213 27 287 5c45 30 128 72 162 60c8 -14 27 -56 11 -149c11 -20 71 -64 71 -187c-1 -45 -6 -84 -14 -117zM99 193c0 -111 78 -160 187 -169c7 -1 14 -1 22 -2c51 -1 115 -2 178 0c14 1 28 2 41 4
c104 15 147 75 147 159c0 61 -28 141 -140 141c-8 0 -74 -8 -137 -8c-71 0 -144 8 -155 8c-115 0 -143 -91 -143 -133zM231 244c22 0 39 -26 39 -58s-17 -58 -39 -58s-38 26 -38 58s16 58 38 58zM554 128c-23 0 -40 26 -40 58s17 58 40 58c22 0 39 -26 39 -58
s-17 -58 -39 -58zM388 100c-10 0 -18 9 -18 19c0 9 8 17 18 17s19 -8 19 -17c0 -10 -9 -19 -19 -19zM389 40c-29 0 -52 25 -52 40c0 6 4 11 10 11s10 -5 10 -11c1 -3 14 -20 32 -20c14 0 27 12 27 20c0 6 5 11 10 11c6 0 11 -5 11 -11c0 -18 -20 -40 -48 -40z" />
    <glyph glyph-name="globe" unicode="globe" 
d="M610 560c66 -66 107 -156 107 -253c0 -98 -41 -186 -107 -252s-155 -106 -252 -106c-98 0 -186 40 -252 106s-106 154 -106 252c0 97 40 187 106 253s154 106 252 106c97 0 186 -40 252 -106zM399 105h2c3 0 6 -1 8 -4c2 -2 4 -4 8 -4c1 0 2 1 2 3c0 4 1 8 1 9
c1 3 3 3 5 3c1 0 1 0 1 2l-2 2c-1 0 -2 -1 -2 -2c-1 -1 -2 -2 -3 0l-6 -4l-7 2l-12 18l4 26c0 1 -1 3 -4 4s-3 3 -2 4c-4 2 -9 4 -15 4c-1 0 -4 -1 -9 -2c-5 0 -8 0 -8 2c0 3 3 9 5 16c1 3 2 8 3 10c0 2 1 4 1 4l5 12l-1 2l-7 1c-2 0 -9 -4 -14 -8c-5 -6 -9 -11 -9 -15
l-20 -4c-4 0 -8 1 -11 5c-1 5 -4 11 -8 17c-4 5 -5 10 -5 15c0 6 1 14 3 19c2 6 2 13 -2 19c1 0 4 2 2 4l5 6l1 1l1 -1c4 3 11 4 17 3c7 -1 11 2 13 7l7 -7c2 -1 6 6 6 8l-3 2l18 4l1 -2h8l10 -6c1 0 2 1 3 2c2 2 3 2 4 1l9 -10c-1 -2 -1 -4 -1 -6c1 -1 2 -2 2 -3
c0 -4 9 -22 14 -22c3 0 4 2 3 6v8c0 5 -1 11 -3 17c-3 5 -5 12 -7 18v2c0 3 2 6 6 8c3 2 5 4 5 4c3 2 6 5 10 7c3 2 6 7 8 10l3 7v4h3s2 1 2 3c0 0 -1 1 -2 1c-1 1 -4 3 -6 5l2 2c3 3 4 10 2 13l8 4c-2 -4 4 -5 6 -4l4 9c-2 5 -3 0 0 6c3 1 6 2 9 4c3 1 5 2 8 2
c1 0 2 -1 2 -1c2 0 3 1 3 1c0 3 -1 5 -2 5l5 11c4 0 8 2 10 6l8 1c2 0 3 1 3 3v2l15 4l2 5l-4 6s1 1 1 2s-1 2 -2 3c-1 0 -2 1 -3 1c-1 1 -2 2 -3 2h2h6s4 1 4 4c0 4 -2 5 -6 5c-11 0 -28 -4 -34 -16l-6 -3l8 8l1 2c0 1 -1 2 -3 3h-3c10 0 16 3 20 6c3 3 6 6 13 8
c7 -1 14 -1 21 -1c6 1 12 1 19 1c3 2 7 6 9 10l10 1c2 -2 9 3 9 6s-1 4 -4 5s-6 3 -6 6v3c1 1 0 2 -1 2c-4 0 -14 -5 -17 -7c-2 -2 -3 1 -3 3l1 -1l4 2l10 4l1 1c0 4 -6 5 -8 5c-1 0 -3 -1 -5 -2c-2 0 -4 0 -4 2l1 2c-7 5 -13 15 -13 18v4c1 1 0 1 -2 1h-3c-1 -1 -2 0 -2 2
s-4 13 -9 13l-3 -3c0 -2 -1 -3 -3 -4s-3 -2 -3 -3h-1l-10 -6c0 2 -1 2 -2 1c-1 0 -1 -1 -3 -1h-2c5 0 4 7 0 7l-8 -1c-2 0 -2 0 0 2c1 2 3 4 1 6c0 2 -1 2 -2 1l2 3c2 1 -1 5 -3 7l-9 1l-6 6c-1 -1 -2 0 -4 1c-1 1 -3 3 -4 3l-7 -3l-18 4c-2 0 -5 -1 -5 -4c0 -1 0 -2 1 -2
c2 -1 2 -2 2 -3s1 -5 2 -10c0 -5 0 -7 -3 -6l-4 -6c0 -2 2 -3 3 -3c3 -2 6 -5 8 -8c2 -2 2 -5 1 -8l-19 -15v-1c0 -3 0 -5 1 -7c2 -2 2 -5 4 -8c5 -2 5 -4 1 -6c-2 0 -4 -1 -6 -2l-2 -2c0 -1 -1 -1 -2 -1h-3h-2s0 1 1 1c0 0 1 1 1 2l-9 5l-4 7c1 3 1 5 0 6s-1 3 -1 5
c0 4 -2 7 -6 7c-5 0 -9 -1 -14 -2c2 1 -2 6 -3 6c-5 0 -11 2 -18 6s-12 6 -16 6c-3 0 -9 -1 -13 -3c2 1 2 2 3 5l-6 10l-1 1c-2 0 -4 -1 -6 -3c-2 -1 -5 0 -5 4c0 1 1 2 1 2c1 1 1 1 0 2c0 3 1 6 4 9c2 2 3 6 4 9c2 1 2 2 2 3c0 2 1 2 2 2c2 0 5 1 7 2c2 2 4 3 7 3l1 3
c0 1 -3 2 -9 3c-7 1 -10 1 -10 3l1 1c6 -2 11 -3 14 -3c6 -1 9 1 15 4c2 1 8 3 13 6c0 1 -1 1 -4 2h4l7 4v4l-2 2l10 2c-1 2 1 3 2 3c2 0 4 -1 6 -3s3 -2 4 -2l9 3c0 1 1 1 3 1c2 1 3 2 2 3l-7 7c-2 0 -3 3 -1 3c3 0 5 1 3 4c-2 1 -5 3 -8 4c-3 2 -6 3 -9 3
c-2 0 -6 -1 -6 -4c0 -2 1 -2 2 -2c2 0 3 -1 3 -2c2 -1 1 -2 -1 -2h-2c-2 0 -5 -2 -7 -6c-2 -3 -5 -6 -8 -7c-1 0 -1 0 -1 1c1 1 0 1 0 2c-1 1 -2 2 -3 2c-2 1 -4 1 -4 2c0 2 2 3 4 6c1 3 -2 4 -7 4c-2 0 -4 -1 -5 -3c-1 -1 -2 -3 -3 -5l-10 11l-8 1c0 2 1 4 2 6
c2 4 -6 9 -9 12c-1 0 -3 1 -5 1c-1 0 -7 -5 -11 -7c-2 -1 -3 -2 -3 -3c0 -2 2 -2 5 -2h-1c-2 0 -3 -1 -3 -4c0 -1 8 -3 10 -3s4 0 4 -1c1 -1 1 -1 3 -1l3 1v-2s-1 -2 -1 -2l1 -3l-10 -5l-1 -1c-1 0 -2 0 -2 -1s0 -3 2 -5c1 -2 0 -3 -5 -3l-3 2c0 2 -2 4 -7 6
c-9 3 -25 4 -39 4c-7 1 -12 1 -16 1l-15 -5l4 -8c-1 0 -3 -1 -3 -1c-4 3 -10 9 -12 9l-7 1c-22 -1 -48 -22 -73 -47s-47 -53 -58 -70h2c2 0 3 1 6 2c2 1 3 -1 3 -4c0 -2 0 -3 -1 -5s1 -3 5 -3c1 0 2 1 2 3c1 2 1 2 1 0l2 -7v-1c0 -1 -1 -2 -2 -3c-3 -1 0 -4 3 -4h5l2 1l1 1
c0 -4 4 -5 7 -5h1s-1 -2 -2 -3c-2 0 -2 -1 0 -2l10 -2v-1l6 -13c0 -2 -2 -7 -4 -7s-2 1 -2 2c1 0 1 1 1 3c0 1 -1 2 -1 3c-1 1 -3 1 -7 1c-1 0 -4 0 -2 -3l5 -11l2 -2c-6 0 -7 -20 -7 -26l1 -8l1 -3v-1l-1 -9l12 -20h3c0 -1 0 -2 -1 -3s-1 -2 -1 -4l4 -3c0 -6 2 -7 7 -12
c0 -3 4 -7 10 -11c7 -3 11 -5 13 -6c4 -14 11 -29 21 -38l1 -6l-2 -2c-2 0 -2 -1 -1 -2l8 -4c2 2 3 0 5 -3c2 -4 3 -6 4 -7v-3l5 -7l2 -2l2 5c-2 5 -9 16 -15 25c-3 5 -6 10 -9 14c-2 3 -3 5 -3 6s-1 12 -2 14c1 -1 4 -2 6 -3c3 -1 6 -2 8 -3c1 -8 4 -14 9 -19
c4 -4 8 -9 11 -15c-2 -2 2 -2 4 -2c1 -2 1 -3 1 -7c9 -9 27 -30 27 -39v-1l-2 -6c4 -9 13 -16 22 -19h2c5 -3 12 -6 19 -9c6 -4 12 -7 18 -9l10 6c5 -1 11 -6 18 -12s16 -13 28 -15c4 3 6 2 6 -2v-2l11 -13l2 -6c6 -4 13 -10 16 -17zM270 608l-1 2c-2 1 -7 3 -9 3
c-1 0 -3 -1 -7 -2c-7 -4 -18 -7 -26 -11c-4 -2 -7 -3 -9 -3c4 0 8 1 12 3c3 2 7 3 11 3l3 -2c2 -1 3 -1 5 -1c1 0 2 0 4 -2c2 1 4 1 7 -1l3 2v4l-1 2l2 -1c2 0 4 1 6 4zM421 22l1 -6c0 -2 -1 -2 -2 -4c-3 -2 -8 -5 -8 -11c0 -1 1 -2 1 -4c1 -1 2 -2 2 -4c0 -1 -1 -2 -1 -3
c69 12 131 45 179 96h-1c-2 -1 -5 -1 -6 0l-3 -1l-5 1h-3c-2 3 -4 5 -7 7l-1 1c-1 0 -2 0 -2 -2c0 9 -7 17 -15 17c0 -1 -1 -1 -1 -1h-2l-2 1h3l2 6l-5 3l-1 -1c-4 1 -7 3 -9 7l-3 1v-1l-2 -1c-4 -1 -7 -2 -9 -3c-4 1 -7 3 -8 4l-12 -1c0 4 -2 9 -7 9c-6 0 -14 0 -16 -7
c0 -2 1 -5 2 -6v-4l-1 -2l-1 -1h-1l-3 7l3 4c-1 2 -1 3 -1 5s-1 3 -1 5l-1 1h-3l-6 -4h-4l-1 -2c-1 0 -1 -1 -1 -2c0 0 -1 0 -1 -1l-1 1h-4c-2 -2 -3 -5 -4 -8l2 -2l-5 -2l-1 -2l-3 -2v-1h-1v-5h-1c-1 4 -4 8 -10 11h-3v-2c0 -2 2 -3 4 -4c2 -2 3 -4 4 -5c-1 1 -3 0 -3 -1
v-2l6 -9v-17l2 -4c-2 -5 -4 -10 -7 -13v1l-2 -1l-1 -1l-1 -4l1 -1v-1l-2 2l-1 -6l-5 -2c-2 -1 -3 -2 -2 -5c0 -2 -1 -3 -3 -4l1 -2l-2 -3c0 -1 0 -2 -1 -2v-4l1 -7l2 -1l2 1z" />
    <glyph glyph-name="good" unicode="good" horiz-adv-x="665" 
d="M505 82v-37h109v-70h-371s-59 45 -59 45v319s82 61 118 136c36 76 34 164 34 164h94s4 -72 0 -129c-5 -58 -24 -129 -24 -129h260v-82h-161v-37h161v-73h-161v-36h130v-71h-130zM0 25h142v308h-142v-308z" />
    <glyph glyph-name="google" unicode="google" horiz-adv-x="655" 
d="M82 635h491c45 0 82 -37 82 -82v-82h-102v102h-51v-102h-103v-51h103v-103h51v103h102v-359c0 -45 -37 -81 -82 -81h-196c1 6 1 12 1 18c0 68 -14 102 -86 155c-20 15 -66 46 -66 68c0 25 7 37 45 67s66 70 66 119c0 53 -23 100 -64 124h59l50 53h-222
c-63 0 -122 -27 -160 -67v36c0 45 37 82 82 82zM248 402c10 -78 -25 -129 -84 -127c-60 2 -117 57 -127 136s30 138 89 137c60 -2 112 -67 122 -146zM0 111v177c29 -29 70 -46 121 -46c7 0 14 0 21 1c-7 -13 -12 -29 -12 -44c0 -26 15 -41 33 -58h-41
c-46 0 -88 -12 -122 -30zM309 -20h-227c-39 0 -72 26 -80 63c27 42 84 73 150 72c20 0 40 -5 57 -10c48 -34 88 -54 97 -93c2 -7 3 -15 3 -23v-9z" />
    <glyph glyph-name="graph" unicode="graph" 
d="M0 6h717v56h-661v546h-56v-602zM98 116h616v442l-130 -119l-121 44l-128 -146l-131 47l-106 -110v-158z" />
    <glyph glyph-name="group" unicode="group" horiz-adv-x="818" 
d="M669 155c42 -23 66 -64 63 -105c-2 -25 -3 -26 -35 -30c-20 -3 -146 -4 -276 -4c-147 0 -301 3 -312 6c-44 11 -20 91 38 129c45 29 137 73 162 78c34 7 38 28 0 96c-9 15 -19 61 -20 109c-1 78 14 131 82 157c14 5 28 7 41 7c45 0 87 -25 104 -62
c25 -49 15 -180 -11 -227c-30 -53 -27 -70 6 -79c22 -6 90 -38 158 -75zM125 185c-16 -11 -31 -25 -43 -39c-38 0 -67 1 -70 2c-25 6 -11 52 22 72c25 16 76 41 90 44c18 4 22 15 0 53c-5 8 -11 34 -11 61c-1 44 8 74 46 87c32 12 68 -3 81 -30c13 -28 6 -100 -8 -126
c-16 -31 -13 -39 5 -44c4 -1 12 -5 23 -10c-44 -18 -104 -51 -135 -70zM783 223c24 -13 37 -35 35 -58c-1 -14 -1 -15 -19 -17c-5 -1 -28 -2 -58 -2c-13 17 -31 33 -53 44c-41 24 -91 50 -128 66c10 4 19 7 23 8c19 4 22 15 0 53c-4 8 -11 34 -11 61c-1 44 7 74 45 87
c33 12 69 -3 81 -30c13 -28 8 -100 -6 -126c-16 -31 -14 -39 3 -44c12 -4 50 -22 88 -42z" />
    <glyph glyph-name="hatena" unicode="hatena" horiz-adv-x="819" 
d="M397 608c-17 -6 -91 -33 -94 -34c-2 1 -76 28 -93 34c17 6 91 32 93 33c3 -1 77 -27 94 -33zM609 608c-17 -6 -91 -33 -93 -34c-3 1 -77 28 -94 34c17 6 91 32 94 33c2 -1 76 -27 93 -33zM295 527c-17 -6 -92 -31 -94 -32c-2 1 -76 26 -93 32c17 6 91 32 93 33
c2 -1 77 -27 94 -33zM410 495c-2 1 -77 26 -94 32c17 6 92 32 94 33c3 -1 77 -27 94 -33c-17 -6 -91 -31 -94 -32zM618 495c-2 1 -77 26 -94 32c17 6 92 32 94 33c2 -1 77 -27 94 -33c-17 -6 -92 -31 -94 -32zM410 553l-48 -16s-14 -6 -26 -10c13 -5 71 -24 74 -26
c4 2 60 21 74 26c-15 5 -70 25 -74 26zM93 479c3 0 77 -27 94 -33c-17 -6 -91 -31 -94 -32c-2 1 -76 26 -93 32c17 6 91 33 93 33zM304 479c3 0 77 -27 94 -33c-17 -6 -91 -31 -94 -32c-2 1 -76 26 -93 32c17 6 91 33 93 33zM517 479c2 0 77 -27 94 -33
c-17 -6 -92 -31 -94 -32c-2 1 -76 26 -93 32c17 6 91 33 93 33zM726 479c2 0 76 -27 93 -33c-17 -6 -91 -31 -93 -32c-3 1 -77 26 -94 32c17 6 91 33 94 33zM19 446c0 0 70 -24 74 -25c4 1 52 17 75 25c-23 8 -71 25 -75 27c-4 -2 -73 -27 -73 -27h-1zM230 446
c23 -8 71 -24 74 -25c4 1 52 17 75 25c-23 8 -71 25 -75 27c-3 -2 -51 -19 -74 -27zM651 446c23 -8 71 -24 75 -25c4 1 72 24 74 25c-2 1 -70 25 -74 27c-4 -2 -52 -19 -75 -27zM103 364c17 6 92 31 95 32c2 -1 76 -26 93 -32c-17 -6 -91 -32 -93 -33c-3 1 -78 27 -95 33z
M501 364c-17 -6 -92 -32 -94 -33c-2 1 -77 27 -94 33c17 6 92 31 94 32c2 -1 77 -26 94 -32zM528 364c17 6 92 31 94 32c3 -1 77 -26 94 -32c-17 -6 -91 -32 -94 -33c-2 1 -77 27 -94 33zM198 338c3 1 50 18 73 26c-23 8 -70 24 -73 25c-4 -1 -51 -17 -74 -25
c23 -8 70 -25 74 -26zM407 389c-3 -1 -51 -17 -74 -25c23 -8 71 -25 74 -26c3 1 50 18 73 26c-23 8 -70 24 -73 25zM622 338c3 1 50 18 73 26c-23 8 -70 24 -73 25c-3 -1 -51 -17 -74 -25c23 -8 71 -25 74 -26zM316 257c17 6 92 33 94 33s76 -27 93 -33
c-17 -6 -91 -32 -93 -33c-2 1 -77 27 -94 33zM367 147h-32v-47h-18v-26h18v-101h32v101h18v26h-18v47zM41 145h-34v-172h34v76h71v-76h32v172h-32v-64h-71v64zM579 101h-31v-128h31v51c0 12 1 21 1 24c2 8 5 14 10 19c4 4 9 6 15 6c5 0 9 -2 12 -4s6 -7 8 -12
c1 -5 2 -14 2 -29v-55h30v82c0 14 -3 26 -10 33c-9 8 -20 13 -32 13c-6 0 -12 -2 -17 -4c-6 -2 -12 -6 -19 -12v16zM265 88v12h32v-127h-32v14c-10 -8 -24 -14 -38 -14c-35 0 -63 29 -63 64c0 36 28 63 63 63c14 0 28 -4 38 -12zM494 12h27c-5 -13 -16 -26 -25 -30
s-20 -9 -32 -9c-18 0 -34 7 -46 19c-12 11 -18 27 -18 45s6 33 18 45s27 18 45 18s34 -6 46 -18c12 -11 17 -28 17 -48v-5h-97c1 -9 5 -16 11 -21s15 -8 24 -8c11 0 22 4 30 12zM779 88v12h33v-127h-33v14c-10 -8 -24 -14 -38 -14c-35 0 -63 29 -63 64c0 36 28 63 63 63
c14 0 28 -4 38 -12zM430 52h67c-2 6 -7 13 -13 17c-5 4 -12 6 -20 6s-16 -2 -23 -7c-4 -3 -7 -9 -11 -16zM227 2c19 0 35 16 35 35s-16 36 -35 36s-34 -17 -34 -36s15 -35 34 -35zM741 2c19 0 35 16 35 35s-16 36 -35 36s-34 -17 -34 -36s15 -35 34 -35z" />
    <glyph glyph-name="heart" unicode="heart" horiz-adv-x="768" 
d="M582 624c166 0 221 -192 163 -297c-89 -163 -361 -336 -361 -336s-273 173 -361 336c-58 105 -4 297 163 297c154 0 193 -133 198 -153c5 20 44 153 198 153z" />
    <glyph glyph-name="heartempty" unicode="heartempty" horiz-adv-x="768" 
d="M384 -14c5 0 11 1 15 4c11 7 259 165 344 320c36 66 32 155 -9 224c-36 61 -96 95 -168 95c-99 0 -153 -53 -182 -98c-29 45 -84 98 -182 98c-73 0 -132 -34 -169 -95c-41 -69 -44 -158 -8 -224c84 -155 333 -313 343 -320c5 -3 10 -4 16 -4zM202 569
c118 0 148 -98 152 -117c4 -13 16 -24 30 -24c13 0 26 11 29 24c5 19 35 117 153 117c65 0 100 -35 117 -66c30 -49 33 -118 8 -164c-67 -120 -252 -250 -307 -288c-56 38 -241 168 -307 288c-25 46 -22 115 8 164c17 31 52 66 117 66z" />
    <glyph glyph-name="help" unicode="help" 
d="M358 666c198 0 359 -161 359 -359s-161 -358 -359 -358s-358 160 -358 358s160 359 358 359zM331 196h24c3 61 17 81 74 115c35 22 46 29 59 43c18 19 27 43 27 71c0 71 -57 114 -150 114c-32 0 -57 -6 -82 -15c-50 -19 -81 -59 -81 -103c0 -22 15 -33 46 -33
c26 0 40 11 39 29v24c0 15 6 41 14 54c10 16 31 27 55 27c45 0 74 -36 74 -89c0 -20 -3 -39 -11 -57c-7 -14 -15 -25 -39 -51c-38 -40 -49 -69 -49 -114v-15zM344 51c29 0 52 23 52 52s-22 52 -52 52c-29 0 -51 -23 -51 -52s22 -52 51 -52z" />
    <glyph glyph-name="horizontal" unicode="hori&#x7a;ontal" horiz-adv-x="687" 
d="M330 537h-287v-179c-15 -4 -31 -11 -43 -21v261c0 37 31 68 68 68h237c37 0 68 -31 68 -68v-238h-43v177zM471 453h69c-3 28 -15 54 -35 74c-27 27 -62 38 -96 35v51c47 3 96 -13 132 -50c31 -31 47 -69 50 -110h67l-92 -100zM68 322h552c37 0 67 -31 67 -68v-238
c0 -37 -30 -67 -67 -67h-552c-37 0 -68 30 -68 67v238c0 37 31 68 68 68zM134 -7h424v286h-424v-286zM78 98c20 0 38 17 38 37s-18 37 -38 37s-37 -17 -37 -37s17 -37 37 -37z" />
    <glyph glyph-name="home" unicode="home" horiz-adv-x="747" 
d="M623 416l116 -106c14 -13 10 -23 -9 -23h-87v-277c0 -19 -16 -36 -35 -36h-151v194c0 19 -17 36 -36 36h-95c-19 0 -36 -17 -36 -36v-194h-151c-19 0 -36 17 -36 36v277h-86c-19 0 -23 10 -9 23l339 308c14 13 38 13 53 0l77 -69v55c0 19 17 36 36 36h75
c19 0 35 -17 35 -36v-188z" />
    <glyph glyph-name="hot" unicode="hot" horiz-adv-x="819" 
d="M630 303c0 125 -65 190 -190 190c125 0 190 64 190 189c0 -125 64 -189 189 -189c-125 0 -189 -65 -189 -190zM345 624c0 -227 119 -346 346 -346c-227 0 -346 -119 -346 -346c0 227 -118 346 -345 346c227 0 345 119 345 346zM595 146c0 -59 31 -91 90 -91h1
c-60 0 -91 -31 -91 -90c0 59 -31 90 -90 90c59 0 90 32 90 91z" />
    <glyph glyph-name="image" unicode="image" 
d="M0 14v586h717v-586h-717zM644 208v319h-571v-271l156 93l204 -111l83 49zM510 356c-32 0 -57 26 -57 58s25 58 57 58s57 -26 57 -58s-25 -58 -57 -58z" />
    <glyph glyph-name="info" unicode="info" 
d="M358 666c198 0 359 -161 359 -359s-161 -358 -359 -358s-358 160 -358 358s160 359 358 359zM354 534c-10 -12 -15 -26 -15 -41c0 -12 4 -22 10 -29c7 -7 17 -11 27 -11c14 0 27 6 37 18c9 11 14 27 14 44c0 10 -3 19 -10 26s-17 11 -27 11c-13 0 -26 -6 -36 -18z
M263 327l12 -13c9 10 18 18 24 23c6 4 11 6 15 6c3 0 6 -1 8 -3c1 -3 2 -6 2 -11c0 -25 -3 -41 -16 -101s-20 -104 -20 -133c0 -11 2 -19 6 -24c3 -5 9 -9 17 -9c13 0 32 10 54 27c22 18 44 43 68 75l-13 11c-8 -10 -16 -17 -22 -22c-6 -4 -11 -8 -15 -8c-3 0 -6 3 -8 5
c-1 3 -2 7 -2 13c0 4 1 17 5 40c3 23 2 23 8 57c1 10 4 24 7 41c8 51 13 82 13 92c0 9 -3 17 -6 22c-4 5 -10 7 -17 7c-12 0 -28 -9 -50 -25c-22 -17 -44 -40 -70 -70z" />
    <glyph glyph-name="instapaper" unicode="instapaper" horiz-adv-x="665" 
d="M129 640h408c72 0 129 -57 129 -129v-307c-3 -30 -18 -58 -34 -67c-18 -10 -54 3 -81 -13c-28 -16 -31 -52 -49 -66c-22 -16 -40 -21 -72 -24h-316c-62 0 -114 50 -114 112v365c0 72 57 129 129 129zM385 500h29v38h-160v-38h27c10 0 19 -9 19 -20v-285
c0 -11 -9 -20 -19 -20h-27v-38h160v38h-29c-10 0 -19 9 -19 20v285c0 11 9 20 19 20zM552 34h-121c114 0 235 72 235 170v-58c0 -62 -52 -112 -114 -112zM114 19h438c62 0 114 52 114 114v-13c0 -62 -52 -114 -114 -114h-438c-62 0 -114 52 -114 114v13
c0 -62 52 -114 114 -114zM114 -7h438c62 0 114 51 114 113v-3c0 -72 -57 -129 -129 -129h-408c-72 0 -129 57 -129 129v3c0 -62 52 -113 114 -113z" />
    <glyph glyph-name="internetexplorer" unicode="internetexplorer" horiz-adv-x="737" 
d="M537 184h183c-44 -132 -170 -227 -317 -227c-144 0 -267 92 -314 220c-41 -85 -50 -154 -18 -185c38 -39 96 -35 166 -1c-89 -51 -165 -65 -212 -18c-55 55 -18 253 119 426c0 0 0 1 1 1c5 7 12 15 18 22c0 0 1 0 1 1c2 3 5 6 8 9c1 1 2 2 2 3c3 2 5 5 7 7l3 3
c2 2 4 6 6 8c1 1 3 2 4 3l10 10l15 15c1 1 2 1 3 2c5 5 11 10 15 15c2 1 3 2 4 3l15 12c1 2 2 3 3 4l12 9c2 2 4 3 5 4c4 4 10 8 14 11c2 2 4 3 6 5l12 9c3 2 6 4 8 5c2 2 5 3 7 5l15 9l4 4c10 6 21 12 31 18c-85 -36 -183 -111 -268 -213c-11 -13 -22 -27 -31 -40
c25 160 162 283 329 283c8 0 16 0 24 -1c119 55 225 63 268 19c37 -36 38 -89 13 -152c14 48 9 88 -20 117c-32 32 -91 27 -165 -6c125 -48 214 -170 214 -311c0 -14 -1 -28 -2 -41h-474c3 -26 12 -48 22 -67c27 -49 71 -76 120 -76c54 0 107 17 134 76zM263 344h287
c-16 93 -80 131 -147 131c-66 0 -123 -48 -140 -131z" />
    <glyph glyph-name="iphone" unicode="iphone" horiz-adv-x="416" 
d="M76 691h265c42 0 76 -34 76 -76v-616c0 -42 -34 -76 -76 -76h-265c-42 0 -76 34 -76 76v616c0 42 34 76 76 76zM49 74h319v473h-319v-473zM208 -31c24 0 42 18 42 41c0 24 -18 42 -42 42c-23 0 -41 -18 -41 -42c0 -23 18 -41 41 -41z" />
    <glyph glyph-name="italic" unicode="italic" horiz-adv-x="456" 
d="M8 11l-8 -36c3 0 8 0 16 1c6 0 16 1 27 2c35 4 62 6 79 5h87c19 -2 35 -4 46 -6c10 -1 17 -1 19 -1c3 -2 6 -2 8 -2h5h6c3 0 7 0 12 1h5c1 1 3 1 5 1c2 3 3 7 3 10s2 5 3 7c0 4 1 7 1 12c0 3 1 8 1 13c-8 1 -15 3 -20 4s-8 1 -9 1c-17 2 -33 5 -53 9c-1 3 -1 5 -1 7v5
l6 19l18 102l18 68l27 136c5 31 16 74 29 132c1 9 3 21 6 35c4 16 7 28 11 38c11 4 26 9 45 14c17 4 35 8 49 13c2 9 4 17 6 22c0 3 1 6 1 9c1 2 1 5 1 8c-3 0 -9 0 -17 -1c-8 0 -17 -1 -29 -2c-45 -3 -76 -4 -96 -4h-11c-6 0 -13 1 -22 1l-141 6l-9 -45h8c2 -1 7 -1 10 -1
c31 -2 51 -6 64 -12v-18l-4 -20l-9 -59l-7 -28l-14 -68c0 -1 -3 -11 -8 -27c-5 -17 -11 -42 -17 -77l-5 -28l-26 -116l-12 -59c-3 -18 -10 -34 -18 -45c-12 -5 -28 -12 -52 -17c-15 -4 -28 -6 -34 -9z" />
    <glyph glyph-name="key" unicode="key" 
d="M318 171l-39 40s-111 -43 -223 68c-95 95 -53 244 9 305c66 66 207 106 310 3s59 -225 59 -225l283 -282l-8 -147l-144 -9l-8 72l-75 9l-7 75l-74 10l-11 72zM104 544c-44 -44 -56 -103 -27 -131c29 -29 87 -17 131 27s57 103 28 131c-28 29 -88 17 -132 -27zM683 24
l2 42l-269 269l-22 -22z" />
    <glyph glyph-name="keyboard" unicode="keyboard" horiz-adv-x="768" 
d="M30 553h708c16 0 30 -14 30 -30v-432c0 -16 -14 -30 -30 -30h-708c-16 0 -30 14 -30 30v432c0 16 14 30 30 30zM51 113h666v389h-666v-389zM123 461h61v-62h-61v62zM239 461h61v-62h-61v62zM353 461h62v-62h-62v62zM469 461h60v-62h-60v62zM584 461h61v-62h-61v62z
M181 338h62v-62h-62v62zM297 276v62h61v-62h-61zM412 276v62h61v-62h-61zM589 276h-62v62h62v-62zM529 154h-290v61h290v-61z" />
    <glyph glyph-name="kudakurage" unicode="kudakurage" horiz-adv-x="683" 
d="M613 523l5 -8c17 -33 42 -79 22 -131c-7 -18 -22 -31 -36 -42c-6 -5 -12 -10 -17 -15c13 -50 34 -90 61 -117c2 -2 6 -5 10 -8c12 -7 28 -18 24 -38c0 -2 -2 -4 -5 -4c-23 0 -43 14 -66 43c-20 29 -39 65 -54 113c-5 -2 -11 -3 -17 -5c-3 0 -7 -1 -10 -2
c4 -24 8 -46 11 -70c6 -52 12 -101 36 -139c3 -5 7 -9 11 -14c10 -10 21 -23 13 -43c-1 -2 -2 -3 -3 -3c-2 -1 -3 0 -4 0c-60 33 -71 114 -81 193c-3 24 -6 49 -10 72c-4 0 -7 -1 -11 -1c-11 -2 -24 -4 -36 -4c3 -67 11 -132 18 -190c1 -16 3 -33 5 -48c1 -8 4 -21 8 -35v-2
c0 -1 1 -3 1 -5c3 -7 9 -18 4 -27c-2 -3 -6 -6 -10 -8h-5c-20 0 -25 38 -27 62l-1 6c-2 17 -5 37 -7 55c-8 61 -16 124 -19 189c-13 -2 -28 -3 -41 -4c-9 0 -20 -1 -30 -1c18 -45 11 -102 5 -156c-7 -60 -13 -118 10 -159c3 -5 7 -8 12 -12c9 -7 20 -16 12 -38
c-1 -3 -4 -4 -6 -3c-72 24 -63 113 -55 199c5 55 10 112 -5 153c-1 6 -1 10 1 13c-13 -1 -27 -2 -42 -2c-8 -36 -15 -75 -21 -118c-2 -12 -4 -25 -6 -37c-8 -56 -17 -114 -16 -179c1 -5 2 -11 3 -16c3 -13 5 -29 -10 -38c-1 -1 -2 -1 -3 -1h-1c-18 2 -17 28 -17 42v5
c0 74 13 150 24 225c6 40 11 77 15 114c-9 1 -22 1 -32 -1c-5 0 -10 -1 -14 -1c-8 -78 -28 -152 -60 -224c-1 -4 -3 -8 -4 -12c-7 -18 -16 -40 -36 -48c-2 0 -5 0 -6 3c-11 18 2 37 11 51c4 5 7 11 9 15c30 63 48 136 56 216c-5 2 -15 2 -19 2c-3 0 -7 -1 -10 -1h-13
c-4 -68 -28 -128 -69 -170c-13 -14 -28 -28 -43 -26c-2 0 -4 1 -5 2c-4 6 -5 13 -4 18c3 8 12 13 20 17c3 2 7 4 9 6c36 38 59 93 63 153c0 1 -4 1 -7 0h-9c-1 1 -2 1 -3 2c-6 5 -11 9 -17 14c-32 26 -62 50 -68 102c-6 55 13 95 30 133c3 5 5 11 8 16c24 53 54 94 89 119
c44 31 101 47 166 47c37 0 76 -6 114 -17c90 -26 155 -82 205 -177zM575 355c41 24 50 77 21 130c-41 77 -93 137 -140 164c-31 17 -105 38 -161 38c-6 0 -12 -1 -17 -1c-87 -8 -150 -43 -191 -106c-11 -19 -50 -85 -55 -136c-4 -41 3 -70 22 -92c26 -28 71 -41 143 -41
c37 0 76 4 114 7c20 2 40 4 58 5c11 1 23 2 35 2c65 3 131 6 171 30zM457 524c-2 -3 -5 -6 -8 -7c-1 -1 -4 -2 -5 -2h-2h-2s-2 1 -3 1c-5 2 -10 6 -12 11c-1 0 -1 0 -2 1c-1 4 -1 8 -1 12c0 7 2 13 5 17c2 4 5 6 9 7c1 1 2 2 3 2h3h1c1 0 2 0 3 -1c6 -2 11 -5 14 -10
c0 -1 0 -1 1 -1c1 -4 2 -8 1 -12c0 -6 -1 -13 -5 -18zM200 500c-12 0 -22 7 -24 18c-1 7 0 15 4 20c8 9 25 9 33 0c4 -4 8 -13 6 -27c0 0 0 -1 -1 -2c-5 -6 -11 -9 -18 -9zM528 458c1 -1 1 -2 1 -3c-3 -14 -17 -30 -32 -30c-5 0 -10 1 -13 4c-2 1 -3 3 -2 5
c-6 -5 -12 -9 -19 -12h-2c-2 0 -4 1 -5 3c0 0 0 1 -1 1c-2 1 -4 3 -3 6c2 16 16 29 31 29h7c1 -1 4 -2 4 -3c1 -1 1 -3 0 -4c0 -2 -1 -3 -2 -5c9 9 22 14 33 12c1 -1 2 -1 3 -3zM559 454c2 -1 3 -3 3 -4c0 -5 -1 -10 -4 -13c-4 -4 -10 -7 -16 -7s-13 3 -16 6c-1 1 -1 3 -1 4
c0 9 10 17 22 17c5 0 9 -1 12 -3zM104 404v2l-1 1c-1 0 -2 1 -3 2c-1 2 -1 3 -1 4c3 13 17 26 30 26c2 0 4 0 5 -1c3 0 5 -3 4 -6c-2 -15 -12 -26 -27 -30h-1c-2 0 -5 1 -6 2zM184 435v-4c-6 -12 -14 -27 -31 -33c-1 -1 -1 -1 -2 -1c-2 0 -5 1 -6 3v2c-2 0 -3 1 -4 2
c0 1 -1 4 0 5c4 15 16 30 32 30c2 0 5 0 7 -1c2 0 3 -1 4 -3zM218 434c2 0 3 0 4 -1c1 -2 2 -3 1 -5c-2 -19 -17 -27 -28 -32c-1 -1 -2 -1 -2 -1c-2 0 -4 1 -5 2c-5 6 -6 13 -3 19c5 11 21 18 33 18zM392 420c4 0 8 -1 12 -4c2 -1 4 -3 3 -5c-5 -31 -44 -44 -78 -44
c-37 0 -64 15 -70 40c0 1 0 4 2 5c4 3 9 5 14 5c7 0 15 -5 20 -10c4 -3 8 -7 12 -8c15 -5 32 -4 49 2c5 2 10 6 14 9c7 5 14 10 22 10z" />
    <glyph glyph-name="laugh" unicode="laugh" 
d="M358 656c198 0 359 -155 359 -349s-161 -349 -359 -349s-358 155 -358 349s160 349 358 349zM138 366l3 -1c5 0 10 3 12 8c0 1 11 49 55 49c45 0 55 -47 56 -49c2 -5 6 -8 11 -8l32 10c3 1 5 3 6 6c2 3 2 6 1 8c-1 4 -20 85 -106 85c-91 0 -105 -81 -106 -84s-1 -6 1 -9
c1 -3 4 -5 7 -6zM575 365l32 10c3 1 5 3 6 6c2 3 2 6 1 8c-1 4 -20 85 -105 85c-91 0 -106 -81 -107 -84s-1 -6 1 -9c1 -3 4 -5 7 -6l28 -9l3 -1c5 0 10 3 12 8c0 1 11 49 56 49c44 0 55 -47 55 -49c2 -5 6 -8 11 -8zM554 208c7 20 -4 43 -24 51s-325 8 -344 0
c-20 -8 -30 -31 -23 -51c32 -81 108 -134 195 -134s164 53 196 134z" />
    <glyph glyph-name="left" unicode="left" horiz-adv-x="475" 
d="M227 309l246 -246l-119 -114l-354 354l362 363l113 -112z" />
    <glyph glyph-name="wink" unicode="wink" 
d="M358 656c198 0 359 -155 359 -349s-161 -349 -359 -349s-358 155 -358 349s160 349 358 349zM587 324l8 21c3 8 -1 17 -9 20l-117 42l108 62c7 4 9 13 5 20l-12 20c-4 7 -13 9 -19 5l-161 -92c-7 -4 -8 -10 -7 -23s3 -18 10 -21l175 -63c7 -3 16 2 19 9zM258 485h-41
c-11 0 -19 -9 -19 -20v-100c0 -11 8 -21 19 -21h41c10 0 20 10 20 21v100c0 11 -10 20 -20 20zM228 243l-39 -13c-4 -1 -7 -4 -8 -7c-2 -3 -2 -7 -1 -11s36 -105 178 -104c142 -1 178 100 179 104s1 8 -1 11c-1 3 -5 6 -9 7l-34 12l-5 1c-6 0 -11 -5 -13 -10
c0 -1 -22 -61 -117 -61c-94 0 -115 58 -116 61c-2 5 -8 10 -14 10z" />
    <glyph glyph-name="link" unicode="link" 
d="M333 390l80 81c7 7 15 16 23 26c8 9 17 17 26 24c17 15 37 28 62 28c22 0 41 -10 55 -23s22 -32 22 -54c0 -9 -1 -19 -4 -26c-7 -14 -13 -24 -19 -32c-3 -4 -6 -8 -6 -12c0 -3 0 -6 2 -7c11 -27 19 -50 24 -78c3 -11 9 -16 19 -16c4 0 8 1 12 4c8 5 15 13 22 21
c4 4 7 8 9 10c36 35 57 85 57 136c0 54 -22 102 -57 137c-35 34 -84 57 -136 57s-102 -21 -137 -58l-137 -136c-36 -37 -56 -85 -56 -136c0 -15 6 -46 16 -75c10 -28 23 -53 40 -53c9 0 28 15 44 32s32 36 32 43c0 5 -4 11 -8 20c-5 9 -7 20 -7 33c0 20 8 40 22 54zM330 6
l137 136c36 35 56 86 56 137c0 15 -6 45 -16 74c-9 28 -23 54 -40 54c-7 0 -28 -16 -43 -33c-17 -17 -33 -35 -33 -42c0 -5 3 -13 8 -21c5 -9 9 -19 9 -32c-1 -20 -9 -40 -23 -56l-81 -80c-7 -8 -15 -16 -23 -25l-25 -25c-17 -16 -38 -27 -63 -27c-42 0 -76 33 -76 76
c0 10 2 19 5 26c6 14 12 24 19 32c3 4 4 8 4 11c0 2 -1 4 -2 8c-12 27 -19 50 -24 78c-2 5 -3 9 -6 11c-3 4 -8 5 -13 5c-4 0 -7 -1 -11 -4c-8 -5 -16 -13 -23 -21c-3 -4 -7 -7 -9 -9c-36 -36 -57 -86 -57 -137c0 -53 21 -102 57 -137c35 -35 83 -56 136 -56
c52 0 102 20 137 57z" />
    <glyph glyph-name="linkedin" unicode="linkedin" horiz-adv-x="665" 
d="M0 556v-498c0 -47 37 -84 84 -84h498c23 0 45 11 59 25c15 15 25 34 25 59v498c0 47 -37 84 -84 84h-498c-25 0 -44 -10 -59 -25c-14 -14 -25 -36 -25 -59zM90 490c0 32 26 60 58 60c33 0 60 -28 60 -60c0 -33 -27 -59 -60 -59c-32 0 -58 26 -58 59zM251 79v305
c0 7 7 13 12 13h85c12 0 12 -14 12 -23c24 24 55 30 87 30c78 0 128 -37 128 -119v-206c0 -7 -6 -13 -12 -13h-88c-7 0 -12 7 -12 13v186c0 31 -9 48 -44 48c-44 0 -55 -29 -55 -68v-166c0 -7 -7 -13 -14 -13h-87c-5 0 -12 7 -12 13zM92 79v305c0 7 7 13 12 13h87
c8 0 13 -5 13 -13v-305c0 -7 -6 -13 -13 -13h-87c-6 0 -12 7 -12 13z" />
    <glyph glyph-name="list" unicode="list" horiz-adv-x="768" 
d="M129 536c0 36 -28 64 -64 64s-65 -28 -65 -64s29 -65 65 -65s64 29 64 65zM204 483h564v104h-564v-104zM129 307c0 36 -28 65 -64 65s-65 -29 -65 -65s29 -64 65 -64s64 28 64 64zM204 255h564v104h-564v-104zM129 79c0 36 -28 64 -64 64s-65 -28 -65 -64s29 -65 65 -65
s64 29 64 65zM204 28h564v103h-564v-103z" />
    <glyph glyph-name="location" unicode="location" horiz-adv-x="665" 
d="M333 -44l333 702l-666 -356h333v-346z" />
    <glyph glyph-name="lock" unicode="lock" horiz-adv-x="550" 
d="M468 334h67c9 0 16 -8 16 -17v-352c0 -9 -7 -16 -16 -16h-519c-9 0 -16 7 -16 16v352c0 9 7 17 16 17h65v164c0 92 59 168 150 168h86c92 0 151 -76 151 -168v-164zM166 334h218v1v155c0 51 -42 94 -94 94h-31c-51 0 -93 -43 -93 -94v-155v-1zM229 51h93l-23 101
c16 8 27 25 27 44c0 29 -23 51 -51 51s-50 -22 -50 -51c0 -19 11 -36 27 -44z" />
    <glyph glyph-name="login" unicode="login" 
d="M391 -18h195c37 0 68 13 92 38c24 24 39 56 39 92v391c0 36 -15 68 -39 92s-56 38 -92 38h-195v-82h195c28 0 49 -21 49 -48v-391c0 -27 -21 -49 -49 -49h-195v-81zM0 385v-156c0 -18 15 -33 33 -33h182v-123c0 -11 5 -20 15 -25c4 -1 9 -1 11 -1c7 0 13 2 18 7l235 235
c9 9 8 27 0 37l-235 234c-8 8 -18 9 -29 6c-10 -5 -15 -13 -15 -24v-124h-182c-18 0 -33 -15 -33 -33z" />
    <glyph glyph-name="logout" unicode="logout" 
d="M0 503v-391c0 -36 15 -68 39 -93c24 -24 55 -37 91 -37h196v81h-196c-27 0 -48 22 -48 49v391c0 27 21 48 48 48h196v82h-196c-36 0 -67 -14 -91 -38c-24 -25 -39 -56 -39 -92zM215 385v-156c0 -18 16 -33 34 -33h181v-123c0 -11 6 -20 16 -25c4 -1 8 -1 10 -1
c7 0 13 2 18 7l235 235c11 9 10 27 0 37l-235 234c-14 15 -44 6 -44 -18v-124h-181c-18 0 -34 -15 -34 -33z" />
    <glyph glyph-name="magic" unicode="magic" 
d="M304 511l-29 -93l-28 93l-93 29l93 28l28 94l29 -94l93 -28zM466 562l-14 -47l-16 47l-46 15l46 14l16 46l14 -46l46 -14zM9 51l573 556c4 5 10 8 17 8c9 1 18 -2 25 -9c3 -2 7 -6 13 -11c11 -10 23 -22 32 -34c4 -6 6 -11 6 -16c1 -10 -2 -19 -8 -25l-573 -558
c-5 -5 -11 -7 -18 -8c-9 -1 -18 2 -25 9c-3 3 -7 6 -13 12c-11 9 -23 21 -31 34c-4 6 -6 12 -7 17c-1 10 2 18 9 25zM469 455l42 -43l133 129l-42 44zM190 398l-13 -46l-14 46l-46 15l46 14l14 47l13 -47l48 -14zM656 433l15 -47l46 -14l-46 -15l-15 -46l-15 46l-46 15
l46 14z" />
    <glyph glyph-name="mail" unicode="mail" horiz-adv-x="768" 
d="M768 551l-384 -329l-384 329v19h768v-19zM768 87l-254 183l254 220v-403zM0 490l254 -220l-254 -183v403zM384 157l105 92l279 -201v-4h-768v4l279 201z" />
    <glyph glyph-name="map" unicode="map" 
d="M0 17l220 83v497l-220 -83v-497zM469 17l-221 83v497l221 -83v-497zM497 17l220 83v497l-220 -83v-497z" />
    <glyph glyph-name="meal" unicode="meal" horiz-adv-x="570" 
d="M201 406v234h67v-268c0 -37 -30 -68 -67 -68v-296c0 -18 -15 -34 -34 -34h-67c-18 0 -33 16 -33 34v296c-37 0 -67 31 -67 68v268h67v-234h33v234h67v-234h34zM369 304v236c0 55 45 100 100 100s100 -45 100 -100v-532c0 -18 -14 -34 -32 -34h-68c-18 0 -34 16 -34 34
v296h-66z" />
    <glyph glyph-name="memo" unicode="memo" horiz-adv-x="674" 
d="M158 666h401c63 0 116 -53 116 -116v-485c0 -63 -53 -116 -116 -116h-401c-63 0 -116 53 -116 116v11h-20c-12 0 -22 9 -22 20s10 22 22 22h20v168h-20c-12 0 -22 10 -22 21s10 22 22 22h20v168h-20c-12 0 -22 10 -22 21s10 21 22 21h20v11c0 63 53 116 116 116zM611 65
v485c0 29 -23 52 -52 52h-401c-29 0 -53 -23 -53 -52v-11h42c11 0 22 -10 22 -21s-11 -21 -22 -21h-42v-168h42c11 0 22 -11 22 -22s-11 -21 -22 -21h-42v-168h42c11 0 22 -11 22 -22s-11 -20 -22 -20h-42v-11c0 -29 24 -53 53 -53h401c29 0 52 24 52 53zM253 539h253
c12 0 21 -10 21 -21s-9 -21 -21 -21h-253c-11 0 -22 10 -22 21s11 21 22 21zM253 455h253c12 0 21 -10 21 -21c0 -12 -9 -21 -21 -21h-253c-11 0 -22 9 -22 21c0 11 11 21 22 21zM253 371h253c12 0 21 -10 21 -22c0 -11 -9 -20 -21 -20h-253c-11 0 -22 9 -22 20
c0 12 11 22 22 22zM253 286h253c12 0 21 -10 21 -21c0 -12 -9 -21 -21 -21h-253c-11 0 -22 9 -22 21c0 11 11 21 22 21zM253 202h253c12 0 21 -10 21 -22c0 -11 -9 -20 -21 -20h-253c-11 0 -22 9 -22 20c0 12 11 22 22 22zM253 118h253c12 0 21 -11 21 -22s-9 -20 -21 -20
h-253c-11 0 -22 9 -22 20s11 22 22 22z" />
    <glyph glyph-name="menu" unicode="menu" horiz-adv-x="665" 
d="M44 526h578c25 0 44 19 44 44c0 24 -19 43 -44 43h-578c-25 0 -44 -19 -44 -43c0 -25 19 -44 44 -44zM44 351h578c25 0 44 19 44 44c0 24 -19 43 -44 43h-578c-25 0 -44 -19 -44 -43c0 -25 19 -44 44 -44zM44 176h578c25 0 44 19 44 43c0 25 -19 44 -44 44h-578
c-25 0 -44 -19 -44 -44c0 -24 19 -43 44 -43zM44 1h578c25 0 44 19 44 43c0 25 -19 44 -44 44h-578c-25 0 -44 -19 -44 -44c0 -24 19 -43 44 -43z" />
    <glyph glyph-name="minus" unicode="minus" horiz-adv-x="757" 
d="M0 386h758v-158h-758v158z" />
    <glyph glyph-name="mixi" unicode="mixi" horiz-adv-x="715" 
d="M352 637c200 13 376 -119 363 -319c-12 -193 -177 -293 -335 -354v71c-209 -15 -399 86 -379 301c15 166 181 289 351 301zM514 188h51v158c0 41 -3 71 -20 91c-18 20 -31 31 -75 31c-33 0 -67 -17 -96 -53c-19 35 -39 53 -83 53c-28 0 -69 -16 -91 -51v46h-52v-275h52
v142c0 43 20 67 36 79c11 8 27 13 39 13c20 0 36 -6 44 -19c8 -12 13 -23 13 -67v-148h51v154c0 43 37 80 71 80c33 0 42 -11 52 -23c7 -8 8 -29 8 -53v-158z" />
    <glyph glyph-name="move" unicode="move" 
d="M224 71l116 -116c5 -5 11 -8 18 -7c8 0 15 2 20 7l115 116c16 16 11 28 -12 28h-78v164h162v-80c0 -23 14 -27 30 -11l115 115c5 5 7 11 7 19c1 7 -2 14 -7 20l-115 114c-16 16 -30 12 -29 -11v-78h-163v162h78c23 0 28 13 12 29l-115 114c-10 10 -28 11 -38 0l-116 -114
c-16 -16 -11 -29 12 -29h78v-161h-161v77c0 23 -14 27 -30 11l-115 -114c-5 -5 -7 -12 -8 -20c0 -8 3 -14 8 -19l115 -115c16 -16 29 -12 29 11v79h162v-163h-78c-23 0 -28 -12 -12 -28z" />
    <glyph glyph-name="music" unicode="music" horiz-adv-x="667" 
d="M182 510v-349c-15 4 -31 7 -45 7c-32 0 -65 -11 -92 -29s-45 -47 -45 -81c0 -36 18 -63 45 -81s60 -28 92 -28c30 0 64 10 91 28s44 45 44 81v366l305 87v-241c-14 4 -31 6 -46 6c-31 0 -65 -9 -92 -27s-44 -47 -44 -81c0 -36 17 -64 44 -81c27 -18 61 -29 92 -29
c30 0 65 11 92 29c28 17 45 45 45 81v461c0 22 -15 37 -37 37c-2 0 -14 -4 -33 -9c-40 -11 -100 -28 -168 -48c-35 -9 -66 -19 -97 -27c-30 -9 -56 -18 -79 -24c-24 -7 -39 -11 -45 -13c-16 -5 -27 -19 -27 -35z" />
    <glyph glyph-name="newwindow" unicode="tabs" 
d="M430 558h-322c-19 0 -36 -17 -36 -36v-286c0 -19 17 -36 36 -36h35v-72h-35c-59 0 -108 49 -108 108v286c0 59 49 108 108 108h322c59 0 108 -49 108 -108h-72c0 19 -17 36 -36 36zM287 486h322c59 0 108 -48 108 -107v-287c0 -59 -49 -107 -108 -107h-322
c-59 0 -108 48 -108 107v287c0 59 49 107 108 107zM287 56h322c19 0 36 17 36 36v287c0 19 -17 36 -36 36h-322c-19 0 -36 -17 -36 -36v-287c0 -19 17 -36 36 -36z" />
    <glyph glyph-name="next" unicode="next" horiz-adv-x="489" 
d="M0 26v563l489 -282z" />
    <glyph glyph-name="notify" unicode="notify" horiz-adv-x="678" 
d="M0 640h679v-500h-244l-96 -166l-95 166h-244v500z" />
    <glyph glyph-name="off" unicode="off" horiz-adv-x="660" 
d="M459 583c118 -50 201 -167 201 -304c0 -181 -148 -330 -330 -330c-181 0 -330 149 -330 330c0 137 83 254 202 304v-111c-62 -42 -104 -112 -104 -193c0 -128 104 -232 232 -232s232 104 232 232c0 81 -41 151 -103 193v111zM385 281v385h-110v-385h110z" />
    <glyph glyph-name="opera" unicode="opera" horiz-adv-x="666" 
d="M330 666c197 0 337 -145 337 -357c0 -197 -140 -360 -337 -360s-330 163 -330 360c0 208 133 357 330 357zM331 30c104 0 126 120 126 274c0 185 -28 283 -126 283c-113 0 -122 -132 -122 -297c0 -154 29 -260 122 -260z" />
    <glyph glyph-name="ordble" unicode="ordble" horiz-adv-x="709" 
d="M356 666c96 0 179 -35 249 -105c70 -71 105 -156 105 -256c0 -99 -35 -184 -104 -253s-152 -103 -249 -103c-102 0 -188 35 -256 106s-101 155 -101 252c0 66 15 126 47 180s75 98 130 130c5 3 11 7 17 9c0 0 58 -35 57 -94c-51 25 -105 -28 -105 -28s58 16 93 -9
c-85 -50 -130 -153 -103 -253c32 -121 156 -193 277 -160s192 156 159 276c-30 113 -138 182 -250 166c8 39 50 81 50 81s-44 6 -79 -57c-11 69 -98 78 -99 78c50 27 104 40 162 40zM222 428c23 23 54 29 69 14c14 -15 8 -45 -16 -68c-23 -24 -53 -30 -68 -15
c-14 14 -9 45 15 69z" />
    <glyph glyph-name="paint" unicode="paint" 
d="M326 317h82v309h-82v-309zM457 404l85 -85c14 -14 14 -36 0 -50l-267 -266c-13 -14 -36 -14 -49 0l-216 216c-13 13 -13 36 0 49l266 267v-259h181v128zM531 380c0 0 67 -27 67 -159c0 -82 -9 -95 -9 -95s128 -14 128 111c0 126 -186 143 -186 143z" />
    <glyph glyph-name="paramater" unicode="paramater" 
d="M414 580v-37h303v-60h-303v-37c0 -11 -10 -20 -21 -20h-69c-11 0 -21 9 -21 20v37h-303v60h303v37c0 11 10 20 21 20h69c11 0 21 -9 21 -20zM125 394h71c11 0 19 -9 19 -20v-37h502v-59h-502v-37c0 -11 -8 -21 -19 -21h-71c-11 0 -21 10 -21 21v37h-104v59h104v37
c0 11 10 20 21 20zM514 188h71c11 0 20 -9 20 -20v-37h112v-59h-112v-37c0 -11 -9 -21 -20 -21h-71c-11 0 -20 10 -20 21v37h-494v59h494v37c0 11 9 20 20 20z" />
    <glyph glyph-name="pause" unicode="pause" horiz-adv-x="665" 
d="M0 609v-604c0 -17 14 -31 31 -31h212c16 0 29 14 29 31v604c0 17 -13 31 -29 31h-212c-17 0 -31 -14 -31 -31zM393 609v-604c0 -17 14 -31 30 -31h212c17 0 31 14 31 31v604c0 17 -14 31 -31 31h-212c-16 0 -30 -14 -30 -31z" />
    <glyph glyph-name="pc" unicode="pc" 
d="M59 650h598c33 0 60 -26 60 -59v-382c0 -33 -27 -61 -60 -61h-233v-99h170c25 0 27 -82 30 -85h-531s0 85 30 85h170v99h-234c-33 0 -59 28 -59 61v382c0 33 26 59 59 59zM59 209h598v382h-598v-382z" />
    <glyph glyph-name="pencil" unicode="pencil" horiz-adv-x="695" 
d="M587 666l-109 -98s36 -22 69 -53c32 -31 55 -66 55 -66l93 111s-1 20 -45 63c-45 43 -63 43 -63 43zM232 117l-5 -48l346 360s-23 32 -51 59c-29 28 -62 50 -62 50l-346 -360l54 3l6 -58zM0 -36l86 176l48 4l4 -55l58 -8l-6 -44l-174 -88z" />
    <glyph glyph-name="phone" unicode="phone" 
d="M0 487c0 -30 11 -63 25 -98s32 -68 46 -93c38 -66 87 -131 143 -185s122 -99 196 -126c43 -17 86 -36 134 -36c24 0 58 9 89 22c30 13 57 33 67 57c4 9 9 21 12 35c3 13 5 26 5 35c0 5 0 10 -1 11c-3 6 -10 11 -18 16c-18 9 -21 12 -48 28c-28 16 -57 34 -82 47
c-12 7 -20 10 -23 10c-16 0 -36 -22 -53 -46c-18 -24 -38 -46 -52 -46c-7 0 -14 3 -22 8s-16 9 -21 12c-88 50 -147 109 -197 196c-6 10 -20 31 -20 42c0 13 18 28 36 44c17 15 35 33 35 55c0 3 -2 12 -6 25c-9 26 -21 56 -31 85c-5 14 -9 24 -10 29c-2 3 -3 7 -4 12
s-3 9 -4 13c-3 9 -8 16 -13 20c-5 2 -17 5 -29 6c-12 0 -26 1 -32 1c-3 0 -7 0 -11 -1h-13c-32 -14 -55 -42 -72 -75c-16 -33 -26 -70 -26 -103z" />
    <glyph glyph-name="photo" unicode="photo" horiz-adv-x="665" 
d="M522 -32v572h-522v-572h522zM47 103v390h428v-390h-428zM666 646v-571h-118v134h70v390h-428v-38h-47v85h523z" />
    <glyph glyph-name="picasa" unicode="picasa" 
d="M503 395l-272 247c40 15 82 24 127 24c51 0 101 -12 145 -31v-240zM329 503l-317 -290c-8 30 -12 61 -12 94c0 138 78 259 193 318zM542 189v426c104 -62 175 -177 175 -308c0 -41 -8 -81 -20 -118h-155zM171 306v-304c-66 40 -116 100 -145 172zM209 151h472
c-58 -119 -181 -202 -323 -202c-53 0 -104 13 -149 33v169z" />
    <glyph glyph-name="pin" unicode="pin" horiz-adv-x="425" 
d="M217 691c116 0 209 -95 209 -209c0 -115 -213 -559 -213 -559s-213 444 -213 559c0 114 93 209 209 209h4h4zM213 404c52 0 95 44 95 97c0 52 -43 95 -95 95c-53 0 -96 -43 -96 -95c0 -53 43 -97 96 -97z" />
    <glyph glyph-name="pinterest" unicode="pinterest" 
d="M298 59l-5 -18c-7 -29 -23 -56 -37 -78c34 -9 67 -14 102 -14c99 0 188 39 254 104c65 65 105 155 105 254s-40 189 -105 254c-66 65 -155 105 -254 105s-188 -40 -253 -105c-66 -65 -105 -155 -105 -254c0 -74 21 -142 60 -198c38 -56 92 -102 154 -129c-1 25 1 53 7 80
c1 8 4 20 8 36c3 14 8 34 14 60c6 25 14 58 23 100c-3 6 -5 12 -6 19c-4 13 -6 25 -5 38c0 52 30 93 70 93c33 0 48 -25 48 -54c0 -16 -5 -35 -12 -58c-8 -24 -15 -45 -20 -69c-5 -19 0 -36 11 -49c11 -12 28 -20 46 -20c34 0 62 21 82 56s32 83 32 135c0 39 -13 72 -39 97
s-63 39 -111 39c-54 0 -98 -19 -129 -51s-48 -75 -48 -121c0 -29 9 -51 25 -69c5 -8 7 -11 5 -20c-1 -3 -3 -8 -4 -14c-3 -13 -4 -30 -22 -24c-50 20 -73 76 -73 138c0 51 21 106 64 149c43 44 108 74 192 74c69 0 126 -24 166 -63c40 -38 61 -90 61 -142
c0 -71 -19 -132 -53 -176s-83 -70 -140 -70c-39 0 -75 20 -88 45c-6 -22 -10 -38 -13 -50c-3 -13 -5 -24 -7 -30z" />
    <glyph glyph-name="plane" unicode="plane" 
d="M392 540l-15 -15l128 -11l77 77c12 12 34 30 66 50s53 26 61 18c22 -22 0 -65 -66 -130l-76 -76l11 -128l15 14c12 13 25 13 35 3c12 -12 7 -29 -17 -53l-24 -25l12 -86l17 18c11 12 23 12 34 2c12 -12 10 -27 -6 -43l-36 -36c14 -96 16 -150 5 -161
c-5 -4 -12 -8 -22 -10c-9 -1 -17 0 -22 4c-4 5 -10 23 -16 54c-7 32 -24 86 -54 162c-29 77 -50 120 -60 131c-4 4 -10 4 -17 0c-7 -3 -32 -24 -72 -63c-40 -40 -77 -72 -112 -97c-1 -6 2 -26 7 -59s7 -55 6 -63c-2 -8 -10 -19 -23 -32c-7 -7 -12 -11 -17 -12
c-13 13 -33 55 -60 124c-75 33 -116 54 -124 62c0 4 4 10 11 17c13 13 24 21 33 22c8 2 29 -1 62 -7c33 -5 53 -7 60 -7c24 36 69 89 139 159c20 22 26 36 19 43c-10 11 -54 31 -130 60c-77 29 -130 48 -162 54c-32 7 -50 12 -54 17c-5 4 -6 12 -4 22c1 10 5 17 10 22
c10 10 64 9 161 -5l35 36c16 15 31 17 43 5c11 -10 10 -22 -1 -33l-18 -17l86 -12l24 23c24 24 41 29 53 17c11 -11 10 -22 -2 -35z" />
    <glyph glyph-name="play" unicode="play" horiz-adv-x="584" 
d="M0 605v-605c0 -11 5 -20 15 -26c4 -3 11 -4 16 -4s9 1 14 4l524 302c10 7 16 16 16 27c0 10 -6 19 -16 26l-524 302c-18 13 -45 -3 -45 -26z" />
    <glyph glyph-name="playmedia" unicode="playmedia" 
d="M0 307c0 -99 39 -189 105 -254c65 -65 154 -104 253 -104s188 39 254 104c65 65 105 155 105 254s-40 189 -105 254c-66 65 -155 105 -254 105s-188 -40 -253 -105c-66 -65 -105 -155 -105 -254zM108 307c0 70 28 132 73 177s107 74 177 74s133 -29 178 -74
c46 -45 73 -107 73 -177s-27 -132 -73 -177c-45 -45 -107 -74 -178 -74c-70 0 -132 29 -177 74s-73 107 -73 177zM261 447v-281c0 -5 2 -9 7 -12c2 -1 5 -2 7 -2s6 1 8 2l244 141c4 2 8 6 8 12s-4 10 -8 12l-244 142c-3 2 -9 2 -15 0c-5 -3 -7 -9 -7 -14z" />
    <glyph glyph-name="plusicon" unicode="plus" 
d="M438 386h279v-159h-279v-277h-159v277h-279v159h279v279h159v-279z" />
    <glyph glyph-name="present" unicode="present" horiz-adv-x="627" 
d="M454 472h121c29 0 53 -23 53 -53v-182h-288v212c-10 3 -19 7 -25 13c-1 0 -1 1 -2 1c0 0 0 -1 -1 -1c-7 -6 -15 -10 -24 -13v-212h-288v182c0 30 23 53 52 53h122c-14 7 -27 17 -38 26c-48 46 -57 110 -19 146c16 14 37 22 60 22c33 0 67 -13 96 -40
c16 -15 31 -36 40 -56c10 20 25 41 41 56c28 27 64 40 96 40c24 0 45 -8 60 -22c38 -36 29 -100 -20 -146c-10 -9 -23 -19 -36 -26zM276 501c4 9 -6 55 -39 86c-17 16 -40 25 -60 25c-6 0 -16 -1 -23 -7c-2 -2 -8 -6 -8 -17c0 -13 8 -33 27 -50c24 -23 62 -39 90 -39
c9 0 13 2 13 2zM352 501c0 0 5 -2 13 -2c28 0 66 16 90 39c19 17 25 37 25 50c0 11 -5 15 -6 17c-7 6 -18 7 -24 7c-19 0 -43 -9 -60 -25c-32 -31 -43 -76 -38 -87v1zM288 -51h-236c-29 0 -52 23 -52 52v183h288v-235zM575 -51h-235v235h288v-183c0 -29 -24 -52 -53 -52z
" />
    <glyph glyph-name="print" unicode="print" 
d="M181 597l-11 -86h377l-11 86c0 26 -21 46 -47 46h-262c-26 0 -46 -20 -46 -46zM46 464h625c26 0 46 -20 46 -46v-274c0 -26 -20 -46 -46 -46h-85v-127h-455v127h-85c-26 0 -46 20 -46 46v274c0 26 20 46 46 46zM540 17v297h-363v-297h363zM486 228h-260
c-6 0 -11 6 -11 12v14c0 6 5 11 11 11h260c6 0 12 -5 12 -11v-14c0 -6 -6 -12 -12 -12zM486 145h-260c-6 0 -11 6 -11 12v14c0 6 5 11 11 11h260c6 0 12 -5 12 -11v-14c0 -6 -6 -12 -12 -12zM486 62h-260c-6 0 -11 6 -11 12v14c0 6 5 11 11 11h260c6 0 12 -5 12 -11v-14
c0 -6 -6 -12 -12 -12z" />
    <glyph glyph-name="quote" unicode="quote" 
d="M306 548l-26 40c-180 -121 -280 -268 -280 -389c0 -117 86 -172 159 -172c92 0 157 78 157 160c0 69 -44 128 -103 150c-17 6 -33 11 -33 40c0 37 27 92 126 171zM703 548l-26 40c-178 -121 -280 -268 -280 -389c0 -117 88 -172 161 -172c93 0 159 78 159 160
c0 69 -45 128 -106 150c-17 6 -32 11 -32 40c0 37 28 92 124 171z" />
    <glyph glyph-name="readability" unicode="readability" horiz-adv-x="819" 
d="M210 301v1c-2 16 -7 33 -15 47c-7 12 -17 23 -28 31c14 122 118 216 243 216s228 -94 242 -216c-10 -8 -20 -19 -27 -31c-8 -14 -14 -31 -16 -47v-1l-8 -77c-57 36 -123 55 -191 55s-135 -19 -192 -55zM150 58l-59 138c-50 1 -91 43 -91 93c0 52 42 94 94 94
c34 0 64 -18 80 -46c7 -11 11 -24 13 -38v-1l29 -269c0 -5 -4 -11 -9 -11h-48c-5 0 -9 6 -9 11v29zM632 298v1c2 14 6 27 13 38c16 28 46 46 80 46c52 0 94 -42 94 -94c0 -50 -41 -92 -91 -93l-58 -138v-29c0 -5 -5 -11 -10 -11h-48c-5 0 -9 6 -9 11zM232 88l-11 111
c54 36 119 56 189 56s134 -20 188 -56l-11 -111h-355z" />
    <glyph glyph-name="record" unicode="record" horiz-adv-x="421" 
d="M85 459v95c0 61 55 112 125 112c69 0 125 -51 125 -112v-95h-250zM422 453v-191c-41 -112 -162 -129 -162 -129v-127h133v-57h-366v57h134v127s-120 17 -161 129v191l49 23v-174s15 -117 161 -117s163 117 163 117v174zM335 426v-86c0 -61 -56 -112 -125 -112
c-70 0 -125 51 -125 112v86h250z" />
    <glyph glyph-name="refresh" unicode="refresh" horiz-adv-x="629" 
d="M536 282h94c0 -82 -31 -165 -92 -226c-123 -123 -323 -123 -446 0s-123 323 0 446c56 56 129 86 203 91v88l241 -139l-241 -140v97c-50 -4 -98 -26 -136 -64c-87 -86 -87 -226 0 -312c86 -87 226 -87 312 0c44 43 66 102 65 159z" />
    <glyph glyph-name="remove" unicode="remove" 
d="M358 666c198 0 359 -161 359 -359s-161 -358 -359 -358s-358 160 -358 358s160 359 358 359zM360 255l114 -115c14 -14 37 -14 51 0c13 13 13 36 0 50l-114 115l114 115c13 14 13 37 0 50c-14 14 -37 14 -51 0l-114 -115l-114 115c-14 14 -37 14 -51 0
c-13 -13 -13 -36 0 -50l114 -115l-114 -115c-13 -14 -13 -37 0 -50c14 -14 37 -14 51 0z" />
    <glyph glyph-name="repeat" unicode="repeat" horiz-adv-x="665" 
d="M453 646v-95h-408c-16 0 -30 -14 -30 -31v-264l107 95c5 6 10 8 15 11v67h316v-95c0 -28 17 -36 40 -16l161 148c7 6 12 14 12 24c0 9 -5 18 -12 24l-161 148c-23 20 -40 12 -40 -16zM650 358l-106 -96c-5 -4 -12 -7 -16 -10v-67h-315v96c0 28 -17 35 -40 15l-162 -148
c-7 -6 -11 -14 -11 -24c0 -9 4 -18 11 -24l162 -147c23 -20 40 -13 40 15v95h407c17 0 30 14 30 31v264z" />
    <glyph glyph-name="reply" unicode="reply" horiz-adv-x="768" 
d="M0 370l274 -254v127s389 100 493 -245c0 0 37 494 -493 494v124z" />
    <glyph glyph-name="right" unicode="right" horiz-adv-x="475" 
d="M248 305l-246 246l119 115l354 -355l-363 -362l-112 111z" />
    <glyph glyph-name="rss" unicode="rss" horiz-adv-x="665" 
d="M0 528v99c39 8 80 13 122 13c300 0 544 -244 544 -544c0 -42 -6 -83 -14 -122h-98c11 39 16 80 16 122c0 248 -200 449 -448 449c-42 0 -83 -6 -122 -17zM0 300v106c38 15 79 23 122 23c183 0 333 -150 333 -333c0 -43 -9 -84 -24 -122h-105c22 36 33 78 33 122
c0 131 -106 238 -237 238c-45 0 -86 -12 -122 -34zM122 218c68 0 122 -54 122 -122s-54 -122 -122 -122s-122 54 -122 122s54 122 122 122z" />
    <glyph glyph-name="safari" unicode="safari" 
d="M358 635c198 0 359 -161 359 -359s-161 -358 -359 -358s-358 160 -358 358c0 167 113 307 267 348c0 1 -1 2 -1 4c-19 4 -34 18 -34 34c0 19 21 34 47 34s47 -15 47 -34c0 -11 -7 -21 -17 -27v-2v-1c16 2 33 3 49 3zM265 638c3 10 12 17 22 17c8 0 14 -4 18 -10
c5 5 9 12 9 18c0 14 -16 26 -35 26s-35 -12 -35 -26c0 -11 9 -21 21 -25zM358 -23c165 0 299 134 299 299c0 166 -134 299 -299 299s-299 -133 -299 -299c0 -165 134 -299 299 -299zM360 560c154 0 279 -125 279 -280c0 -154 -125 -280 -279 -280s-278 126 -278 280
c0 155 124 280 278 280zM360 19c142 0 260 118 260 261c0 144 -118 260 -260 260s-259 -116 -259 -260c0 -143 117 -261 259 -261zM308 454l-8 40c-4 2 -5 3 -6 4h-3v2l17 4l36 -29h1l-5 25c-1 2 -2 4 -3 5s-3 1 -6 1l-1 2l18 4v-2c-2 -1 -4 -2 -5 -3c0 -1 -1 -3 0 -5
l10 -49l-2 -1l-46 37l-1 -1l7 -32c0 -2 1 -4 2 -5s5 -2 8 -1l1 -3l-20 -4v2c3 1 5 3 5 4c1 1 1 3 1 5zM535 315l-91 -41c-1 -9 -3 -17 -7 -25l35 -36l-47 16c-6 -8 -16 -15 -25 -20l-4 -92l-39 84c-11 0 -21 3 -30 8l-131 -113l99 141c-2 3 -4 5 -5 8l-96 3l87 41
c1 11 4 21 9 30l-33 37l46 -18c7 7 16 13 24 17l5 100l41 -91c11 -2 21 -6 30 -11l123 105l-94 -132c1 -2 2 -3 3 -5zM338 298l60 50c-7 4 -14 6 -22 8c-4 1 -9 1 -14 1c-13 0 -24 -3 -35 -9c-6 -3 -13 -7 -17 -12c-7 -6 -12 -14 -16 -22c-3 -7 -5 -14 -6 -22
c0 -3 -1 -6 -1 -10c0 -13 4 -26 10 -37c1 -1 1 -2 2 -3zM577 305v1c4 2 7 4 8 7c2 2 2 7 0 13c0 2 -1 3 -1 4c-1 0 -2 1 -3 0l-17 -3c0 -4 2 -8 4 -9c1 -1 5 -1 10 -1v-2l-25 -5v2c4 1 6 3 8 5c1 1 1 5 0 9l-17 -3c-1 0 -2 -1 -3 -2c0 -1 0 -3 1 -6c0 -4 2 -8 4 -10
c3 -3 7 -5 12 -6v-2h-15l-9 42l2 1c1 -2 1 -4 2 -5s2 -1 4 -1l36 7c2 1 3 2 3 3c1 1 1 3 0 5h2l9 -42zM383 256l-51 -43c7 -3 14 -5 22 -6h8c14 0 28 3 38 10c7 4 14 9 19 14c6 7 10 15 14 23c2 6 3 11 4 17c1 4 1 8 1 11c0 14 -4 26 -10 37l-45 -62v-1zM325 217l52 45l-3 3
c4 3 6 9 6 14c0 10 -8 17 -18 17c-6 0 -11 -3 -14 -7l-4 3l-41 -56l-3 -7l-61 -85l80 69zM362 292c7 0 14 -6 14 -13s-7 -13 -14 -13s-12 6 -12 13s5 13 12 13zM197 238v-2l-42 -26c-2 -1 -3 -2 -4 -3v-3h-3l-4 21l2 1c0 -2 1 -3 1 -4c1 0 2 -1 4 0h1l1 1l24 15l-24 4
s-1 0 -3 -2l-4 -2l-2 -2v-5h-1l-5 24h2c0 -2 1 -3 1 -4c1 -1 1 -1 2 -1s1 1 2 1c0 0 1 1 2 1l22 13l-25 3h-2h-2s-2 -1 -2 -2v-4h-2l-2 14h1c1 -1 1 -2 2 -2c1 -1 2 -2 4 -2l49 -6v-2l-32 -19v-1zM402 93l7 -2c3 -1 5 -2 7 -3c3 -2 6 -5 6 -10c1 -4 1 -8 -2 -12
c-2 -4 -7 -8 -13 -9c-2 0 -5 -1 -6 -1c-2 0 -4 0 -5 1h-2h-1h-1c-1 0 -1 -1 -1 -1c-1 -1 -1 -1 -1 -2l-2 -1l-4 21h2c3 -5 6 -10 9 -12s8 -3 11 -2c4 0 6 3 7 5s2 4 1 6c0 2 -1 4 -3 5s-5 2 -8 3l-6 1c-5 2 -9 4 -12 6c-2 2 -4 4 -5 8c0 4 0 8 2 12c2 3 6 7 12 8
c2 1 5 1 8 0h6s1 1 1 1c1 1 1 2 1 2l2 1l4 -18l-3 -1c-1 4 -4 8 -7 10c-3 3 -8 4 -11 3s-5 -2 -6 -4c-1 -1 -2 -4 -1 -6c0 -3 1 -5 3 -5c2 -1 5 -3 11 -4z" />
    <glyph glyph-name="save" unicode="save" horiz-adv-x="623" 
d="M390 676v-149h78l-156 -188l-156 188h82v149h152zM522 435l91 -144c5 -12 11 -35 11 -49v-277c0 -15 -12 -26 -26 -26h-571c-15 0 -27 11 -27 26v277c0 14 5 37 10 49l91 144c5 13 23 24 36 24h41l42 -51h-84l-81 -148c-1 0 -1 -1 -1 -2c0 -2 0 -3 -1 -4h517v4
c0 1 -1 2 -1 3l-81 147h-84l42 51h40c14 0 31 -11 36 -24zM239 146h147c13 0 25 12 25 26c0 13 -12 25 -25 25h-147c-14 0 -26 -12 -26 -25c0 -14 12 -26 26 -26z" />
    <glyph glyph-name="search" unicode="search" 
d="M541 173l176 -176l-72 -73l-184 185c-45 -25 -97 -39 -151 -39c-171 0 -310 139 -310 310s139 310 310 310s311 -139 311 -310c0 -80 -31 -153 -80 -207zM103 380c0 -115 92 -207 207 -207s207 92 207 207s-92 207 -207 207s-207 -92 -207 -207z" />
    <glyph glyph-name="wrench" unicode="wrench" 
d="M247 423l10 85l-135 137c29 14 62 23 97 23c121 0 219 -97 219 -219c0 -18 -3 -38 -7 -56l249 -248c45 -46 49 -116 8 -157s-112 -38 -158 8l-243 245c-22 -7 -44 -12 -68 -12c-121 0 -219 99 -219 220c0 34 7 64 20 93l139 -141z" />
    <glyph glyph-name="share" unicode="share" horiz-adv-x="788" 
d="M623 180l75 74v-265h-698v532h281l-84 -72h-121v-388h547v119zM550 301v-110l238 222l-238 213v-109c-460 0 -427 -427 -427 -427c90 298 427 211 427 211z" />
    <glyph glyph-name="shopping" unicode="shopping" 
d="M644 174v-46h-441l-77 453h-126v45h165l77 -452h402zM717 627l-69 -400h-361l-70 400h500zM334 504v77h-62l14 -77h48zM380 504h63v77h-63v-77zM489 581v-77h64v77h-64zM599 504h50l14 77h-64v-77zM334 458h-41l11 -64h30v64zM443 394v64h-63v-64h63zM489 394h64v64h-64
v-64zM641 458h-42v-64h31zM334 348h-22l13 -75h9v75zM380 273h63v75h-63v-75zM553 348h-64v-75h64v75zM599 348v-75h10l14 75h-24zM254 101c32 0 56 -25 56 -56c0 -32 -24 -57 -56 -57c-31 0 -56 25 -56 57c0 31 25 56 56 56zM597 101c32 0 56 -25 56 -56
c0 -32 -24 -57 -56 -57s-56 25 -56 57c0 31 24 56 56 56z" />
    <glyph glyph-name="shuffle" unicode="shuffle" horiz-adv-x="768" 
d="M0 157v-64c0 -9 7 -16 16 -16h92c54 0 99 25 136 63c38 38 69 89 100 138c25 40 50 78 76 107c25 30 50 48 80 48h85v-73c0 -23 16 -27 35 -12l139 116c12 10 12 29 0 39l-139 115c-19 16 -35 12 -35 -12v-77h-85c-55 0 -98 -24 -136 -63c-37 -38 -71 -89 -101 -137
c-26 -41 -50 -80 -76 -109c-25 -29 -50 -47 -79 -47h-92c-9 0 -16 -7 -16 -16zM0 514v-64c0 -9 7 -16 16 -16h92c45 0 81 -44 120 -101c1 3 2 5 3 7c1 1 4 3 5 5c15 25 32 49 48 75c-24 31 -47 59 -77 78c-29 20 -61 31 -99 31h-92c-11 0 -16 -5 -16 -15zM585 175h-85
c-44 0 -82 43 -120 99c-2 -3 -3 -5 -4 -7c-2 -2 -3 -4 -5 -7c-7 -12 -16 -25 -23 -37c-8 -11 -16 -24 -23 -35c23 -31 47 -58 76 -77c28 -20 61 -33 99 -33h85v-70c0 -23 16 -28 35 -12l139 117c12 10 12 28 0 38l-139 115c-19 15 -35 12 -35 -12v-79z" />
    <glyph glyph-name="skype" unicode="skype" 
d="M696 230c13 -27 21 -56 21 -88c0 -110 -89 -198 -199 -198c-34 0 -65 8 -93 23c-20 -4 -41 -6 -63 -6c-189 0 -342 154 -342 342c0 24 3 47 8 69c-17 30 -28 64 -28 100c0 110 89 199 199 199c38 0 74 -12 105 -31c18 3 38 5 58 5c188 0 343 -153 343 -342
c0 -25 -4 -49 -9 -73zM538 140c15 23 23 48 23 76c0 24 -4 44 -13 60s-23 30 -39 41c-16 10 -35 20 -58 27s-48 14 -76 20c-22 5 -38 9 -47 11c-9 3 -19 7 -28 11c-8 4 -15 9 -20 15c-4 6 -7 13 -7 20c0 13 7 24 21 33c15 10 34 15 59 15c27 0 47 -5 58 -13
c11 -9 21 -22 30 -38c7 -13 14 -22 21 -28c6 -6 16 -9 28 -9c14 0 27 5 36 15c9 9 14 21 14 33s-4 26 -11 39s-18 26 -32 37c-15 12 -35 22 -58 29c-22 7 -49 10 -79 10c-39 0 -72 -6 -100 -16c-30 -11 -51 -27 -66 -46c-15 -20 -24 -43 -24 -69c0 -27 8 -51 23 -69
c14 -17 33 -33 58 -43c24 -10 54 -19 90 -27c26 -5 47 -10 62 -15c14 -5 27 -11 36 -20c9 -8 14 -19 14 -32c0 -17 -9 -32 -25 -43c-17 -12 -41 -19 -70 -19c-20 0 -37 4 -49 10s-22 13 -28 22c-7 9 -14 21 -20 35c-6 12 -12 23 -20 29c-8 7 -19 11 -30 11
c-14 0 -27 -5 -36 -13c-9 -9 -14 -21 -14 -33c0 -19 7 -42 21 -62s34 -38 57 -50c33 -17 73 -25 122 -25c41 0 77 6 107 18c31 13 55 30 70 53z" />
    <glyph glyph-name="sleipnir" unicode="sleipnir" horiz-adv-x="558" 
d="M406 78h-230s-8 10 -21 23c0 140 80 205 117 257c-36 -19 -68 -30 -86 -31c-11 -17 -45 -58 -55 -65c-12 -26 -31 -32 -51 -32c-70 0 -83 73 -79 83s90 140 105 172s4 23 20 50c16 28 51 54 58 59c-15 11 -48 52 -52 71c-6 36 17 10 44 -8c16 -11 49 -31 67 -39
c138 0 219 -89 219 -195c0 -83 -33 -172 -33 -285v-37zM449 118v20c0 59 9 111 17 161c8 43 15 84 15 124c0 59 -22 112 -63 152c-43 40 -101 63 -171 64h-1c10 13 28 26 34 27c9 2 22 2 30 4c9 2 15 8 38 8c18 0 42 -7 42 -12c0 -7 -26 -3 -42 -20c-4 -6 9 1 16 1
c6 1 17 2 33 -2c11 -3 24 -6 46 -1c7 2 22 0 4 -16c-12 -10 -18 -14 -22 -17c-6 -4 27 13 62 -19c19 -16 46 -36 28 -44c-10 -5 -24 0 -34 -3c-8 -3 18 -2 25 -7c4 -4 6 -16 13 -23c8 -7 16 -8 22 -18c6 -9 19 -37 0 -27c-13 7 -24 12 -37 11c-10 0 20 -8 32 -28
c7 -13 0 -18 4 -29c4 -9 13 -16 16 -24c5 -13 -3 -61 -9 -74c-5 -12 -10 -20 -16 -13c-5 6 -15 6 -19 6c7 -11 2 -18 6 -27c5 -11 13 -17 13 -28c0 -10 -6 -35 -15 -35c-11 0 -24 16 -30 12c-8 -4 20 -24 23 -37c4 -16 -10 -28 -13 -38s0 -29 -9 -38c-7 -7 -13 -10 -38 -10z
M185 51h212l74 -82l-10 -55h-339l-7 58z" />
    <glyph glyph-name="small" unicode="small" horiz-adv-x="665" 
d="M333 571v-226c0 -10 4 -19 11 -27c6 -7 16 -11 27 -11h225c32 0 40 17 17 40l-71 73l118 118c3 4 6 9 6 14s-3 9 -6 13l-69 69c-4 4 -8 6 -14 6c-5 0 -10 -2 -14 -6l-119 -119l-71 72c-23 23 -40 15 -40 -16zM5 49l70 -69c4 -3 8 -6 14 -6c5 0 9 3 13 6l119 119l72 -71
c23 -23 40 -16 40 15v226c0 19 -16 38 -38 38h-225c-32 0 -41 -17 -18 -40l72 -72l-119 -118c-3 -4 -5 -10 -5 -15s2 -9 5 -13z" />
    <glyph glyph-name="smile" unicode="smile" 
d="M358 656c198 0 359 -155 359 -349s-161 -349 -359 -349s-358 155 -358 349s160 349 358 349zM258 485h-41c-11 0 -19 -9 -19 -20v-100c0 -11 8 -21 19 -21h41c10 0 20 10 20 21v100c0 11 -10 20 -20 20zM500 485h-41c-10 0 -20 -9 -20 -20v-100c0 -11 10 -21 20 -21h41
c11 0 19 10 19 21v100c0 11 -8 20 -19 20zM228 243l-39 -13c-4 -1 -7 -4 -8 -7c-2 -3 -2 -7 -1 -11s36 -105 178 -104c142 -1 178 100 179 104s1 8 -1 11c-1 3 -5 6 -9 7l-34 12l-5 1c-6 0 -11 -5 -13 -10c0 -1 -22 -61 -117 -61c-94 0 -115 58 -116 61c-2 5 -8 10 -14 10z
" />
    <glyph glyph-name="sns" unicode="sns" horiz-adv-x="685" 
d="M271 274l173 -97c25 29 62 47 104 47c76 0 137 -62 137 -138s-61 -137 -137 -137c-77 0 -138 61 -138 137c0 8 1 17 2 25l-178 99c-25 -25 -59 -40 -97 -40c-76 0 -137 61 -137 137s61 137 137 137c39 0 75 -16 100 -42l177 96c-2 10 -4 20 -4 30c0 76 61 138 138 138
c76 0 137 -62 137 -138s-61 -137 -137 -137c-39 0 -74 15 -99 42l-178 -95c2 -10 3 -21 3 -31c0 -11 -1 -23 -3 -33z" />
    <glyph glyph-name="sort" unicode="sort" horiz-adv-x="461" 
d="M9 401l191 238c17 22 45 22 62 0l191 -238c17 -22 9 -40 -20 -40h-404c-29 0 -37 18 -20 40zM453 213l-191 -238c-17 -22 -45 -22 -62 0l-191 238c-17 22 -9 40 20 40h404c29 0 37 -18 20 -40z" />
    <glyph glyph-name="star" unicode="star" horiz-adv-x="778" 
d="M148 -62l241 125l241 -125l-46 267l194 189l-269 39l-120 244l-120 -244l-269 -39l195 -189z" />
    <glyph glyph-name="starempty" unicode="starempty" horiz-adv-x="778" 
d="M630 -62l-241 125l-241 -125l47 267l-195 189l269 39l120 244l120 -244l269 -39l-194 -189zM278 377l-155 -23l111 -108c13 -13 20 -32 17 -50l-26 -154l137 73c8 4 18 6 27 6s19 -2 27 -6l137 -73l-26 154c-3 18 4 37 17 50l111 108l-154 23c-18 3 -35 15 -43 32
l-69 139l-68 -139c-8 -17 -25 -29 -43 -32z" />
    <glyph glyph-name="stop" unicode="stop" horiz-adv-x="665" 
d="M0 609v-604c0 -17 14 -31 31 -31h604c17 0 31 14 31 31v604c0 17 -14 31 -31 31h-604c-17 0 -31 -14 -31 -31z" />
    <glyph glyph-name="surprise" unicode="surprise" 
d="M358 656c198 0 359 -155 359 -349s-161 -349 -359 -349s-358 155 -358 349s160 349 358 349zM119 420c0 -58 47 -106 105 -106s106 48 106 106s-48 105 -106 105s-105 -47 -105 -105zM493 314c58 0 105 48 105 106s-47 105 -105 105s-106 -47 -106 -105s48 -106 106 -106
zM271 420c0 -26 -21 -47 -47 -47s-47 21 -47 47s21 47 47 47s47 -21 47 -47zM493 467c26 0 47 -21 47 -47s-21 -47 -47 -47s-48 21 -48 47s22 47 48 47zM316 77h84c51 0 94 42 94 94s-43 94 -94 94h-84c-51 0 -93 -42 -93 -94s42 -94 93 -94z" />
    <glyph glyph-name="sync" unicode="sync" horiz-adv-x="768" 
d="M563 307h65c0 58 -22 113 -56 155h-1c-25 30 -55 53 -91 68c-1 0 -2 1 -2 1c-6 2 -12 6 -18 8c-2 0 -3 1 -5 1c-5 2 -12 3 -17 4c-2 1 -5 2 -7 2c-6 1 -11 2 -17 3h-6c-7 1 -15 1 -22 1c-50 1 -99 -14 -141 -43c-17 -12 -43 -8 -54 9c-12 17 -7 41 10 53
c54 38 117 58 182 58c1 0 1 1 1 1c2 0 3 -1 4 -1c9 0 18 0 26 -1c4 0 7 -1 11 -1c4 -1 9 -1 14 -2c2 0 4 -1 6 -1c3 -1 8 -3 12 -4c6 -1 13 -3 19 -5c3 -1 6 -2 8 -3c8 -2 16 -5 23 -8c2 0 3 -1 4 -1c46 -20 87 -50 120 -90c0 -1 1 -1 1 -2c5 -6 10 -13 14 -19
c1 0 1 -1 1 -2c36 -52 58 -113 58 -181h63l-102 -153zM0 307l102 154l103 -154h-65c0 -57 21 -109 55 -151c1 -1 1 -2 2 -3c5 -6 10 -12 15 -17v-1c16 -16 35 -30 55 -41c1 0 1 -1 1 -1c6 -3 13 -6 19 -8c1 -1 3 -2 4 -2c5 -2 10 -4 16 -6c2 -1 4 -2 7 -2c4 -2 10 -3 15 -4
c3 -1 6 -1 9 -2c5 -1 10 -2 15 -2c3 -1 5 -1 8 -1c6 -1 14 -1 20 -1c51 -1 100 14 142 44c17 11 43 6 54 -11c12 -17 7 -41 -10 -53c-54 -38 -117 -58 -182 -58c-11 0 -22 1 -33 2c-2 0 -4 1 -6 1c-6 1 -11 1 -17 2c-2 1 -4 1 -5 1c-4 1 -10 2 -14 3c-6 2 -12 3 -18 5
c-3 1 -6 2 -10 3c-6 2 -14 5 -21 8c-2 0 -4 1 -5 2c-8 4 -17 8 -24 12c-1 0 -2 1 -2 1c-27 14 -50 32 -72 54c0 1 -1 1 -1 2c-6 6 -13 13 -19 20c-2 1 -3 4 -4 6l-12 15c0 1 -1 1 -1 2c-36 51 -58 113 -58 181h-63z" />
    <glyph glyph-name="tabezou" unicode="tabe&#x7a;ou" horiz-adv-x="1228" 
d="M1087 496l15 15c7 25 -7 19 26 51c4 4 -10 -10 32 33c28 27 79 7 67 -4c-14 -15 -68 -69 -117 -118l69 -69c6 -6 6 -16 0 -22s-17 -6 -23 0l-19 18c-4 -5 -8 -6 -8 -13c0 -9 -4 -68 -6 -85c-4 -28 -42 -84 -61 -108c-19 -23 -67 -44 -105 -44c-38 1 -82 33 -110 53
c-28 22 -63 62 -63 62v-284h-128v152h-28v-152h-135v152h-75v-156h-128v156h-26v-152h-129v378l-135 -121s95 193 128 230c30 32 52 44 81 44h461s38 11 54 10c16 -2 59 -14 75 -23c15 -9 52 -52 63 -78c12 -26 27 -114 38 -129c10 -15 39 -43 57 -47s57 11 57 11
s23 20 35 49c7 18 8 47 3 71c-3 10 -13 17 -18 22l-16 -16c-6 -6 -17 -6 -23 0s-6 16 0 22l69 69l-32 33c-17 -13 -36 -15 -58 7l-46 45c-4 5 -4 12 0 17c5 5 12 5 17 0l44 -44c3 -3 8 -3 11 0s3 9 0 12l-44 44c-5 5 -5 12 0 17c5 4 13 4 18 0v-1l44 -43c3 -3 8 -3 11 0
s3 8 0 11l-44 44c-5 4 -5 13 0 17c4 5 12 5 16 0l47 -45c22 -22 19 -42 7 -59zM601 199h81v29h-81c-22 0 -46 1 -63 18c-18 18 -34 51 -34 65l-2 142h-30l2 -142c0 -25 19 -63 43 -87c26 -26 59 -25 84 -25zM1127 410l-40 41c-17 -16 -33 -32 -45 -44c12 1 32 -3 45 -3
c14 0 30 5 40 6zM717 359c14 0 26 13 26 27s-12 27 -26 27s-27 -13 -27 -27s13 -27 27 -27z" />
    <glyph glyph-name="table" unicode="table" 
d="M0 561v-508c0 -25 20 -45 45 -45h628c25 0 44 20 44 45v508c0 25 -19 45 -44 45h-628c-25 0 -45 -20 -45 -45zM60 388v129h179v-129h-179zM269 388v129h180v-129h-180zM478 388v129h179v-129h-179zM60 228v129h179v-129h-179zM269 228v129h180v-129h-180zM478 228v129
h179v-129h-179zM60 69v130h179v-130h-179zM269 69v130h180v-130h-180zM478 69v130h179v-130h-179z" />
    <glyph glyph-name="tag" unicode="tag" horiz-adv-x="665" 
d="M0 652h267l379 -379c44 -44 0 -89 0 -89s-134 -133 -178 -178c-45 -44 -89 0 -89 0l-379 379v267zM183 469c22 23 22 57 0 79s-57 22 -79 0s-22 -57 0 -79s57 -22 79 0z" />
    <glyph glyph-name="tile" unicode="tile" horiz-adv-x="665" 
d="M0 343h297v297h-297v-297zM369 343h297v297h-297v-297zM0 -26h297v297h-297v-297zM369 -26h297v297h-297v-297z" />
    <glyph glyph-name="tilemenu" unicode="tilemenu" horiz-adv-x="665" 
d="M0 450h190v190h-190v-190zM238 450h190v190h-190v-190zM475 450h191v190h-191v-190zM0 212h190v190h-190v-190zM238 212h190v190h-190v-190zM475 212h191v190h-191v-190zM0 -26h190v191h-190v-191zM238 -26h190v191h-190v-191zM475 -26h191v191h-191v-191z" />
    <glyph glyph-name="time" unicode="time" 
d="M358 -51c-198 0 -358 160 -358 358s160 359 358 359s359 -161 359 -359s-161 -358 -359 -358zM358 577c-148 0 -268 -122 -268 -270s120 -268 268 -268s270 120 270 268s-122 270 -270 270zM455 170l-127 93c-9 7 -18 22 -18 34v203c0 11 10 20 22 20h42
c11 0 20 -9 20 -20v-160c0 -12 9 -27 18 -34l93 -67c9 -7 11 -21 4 -30l-25 -34c-7 -9 -20 -11 -29 -5z" />
    <glyph glyph-name="trash" unicode="trash" horiz-adv-x="572" 
d="M441 567h99c18 0 32 -14 32 -32v-23c0 -15 -11 -29 -25 -32v-475c0 -31 -26 -56 -58 -56h-406c-32 0 -57 25 -57 56v475c-14 3 -26 17 -26 32v23c0 18 15 32 33 32h98v42c0 31 25 57 57 57h196c32 0 57 -26 57 -57v-42zM384 616h-196c-5 0 -8 -3 -8 -7v-42h212v42
c0 4 -3 7 -8 7zM99 13h375c4 0 7 5 7 9v457h-390v-457c0 -4 3 -9 8 -9zM176 50h-6c-18 0 -33 15 -33 33v327c0 17 15 31 33 31h6c17 0 32 -14 32 -31v-327c0 -18 -15 -33 -32 -33zM289 50h-5c-18 0 -33 15 -33 33v327c0 17 15 31 33 31h5c18 0 33 -14 33 -31v-327
c0 -18 -15 -33 -33 -33zM402 50h-5c-18 0 -32 15 -32 33v327c0 17 14 31 32 31h5c18 0 33 -14 33 -31v-327c0 -18 -15 -33 -33 -33z" />
    <glyph glyph-name="trouble" unicode="trouble" 
d="M358 656c198 0 359 -155 359 -349s-161 -349 -359 -349s-358 155 -358 349s160 349 358 349zM198 465v-100c0 -11 8 -21 19 -21h41c10 0 20 10 20 21v100c0 11 -10 20 -20 20h-41c-11 0 -19 -9 -19 -20zM439 465v-100c0 -11 10 -21 20 -21h41c11 0 19 10 19 21v100
c0 11 -8 20 -19 20h-41c-10 0 -20 -9 -20 -20zM584 144c9 9 17 19 6 31c-9 9 -20 19 -29 29c-9 9 -20 18 -32 25c-20 12 -46 15 -70 9c-18 -5 -34 -18 -46 -31c-13 -13 -25 -34 -43 -40c-20 -6 -36 6 -48 21c-12 14 -24 29 -40 39c-19 12 -43 16 -65 13
c-23 -4 -40 -16 -55 -31c-8 -8 -16 -17 -24 -24c-8 -8 -24 -20 -12 -32c7 -7 15 -19 25 -24c12 -5 24 13 31 21c18 17 39 45 68 30c16 -9 28 -29 41 -42c14 -14 33 -24 53 -27c23 -4 47 1 66 13c16 11 28 26 40 40c14 16 34 27 54 15c8 -5 14 -13 20 -20c9 -8 18 -18 27 -26
c12 -12 25 3 33 11z" />
    <glyph glyph-name="tumblr" unicode="tumblr" horiz-adv-x="665" 
d="M84 640h498c47 0 84 -37 84 -84v-498c0 -25 -10 -44 -25 -59c-14 -14 -36 -25 -59 -25h-498c-47 0 -84 37 -84 84v498c0 23 11 45 25 59c15 15 34 25 59 25zM225 365v-186c0 -25 2 -43 7 -55s15 -25 28 -36s29 -21 48 -27c18 -6 40 -9 64 -9c22 0 41 2 59 7
c18 4 39 12 62 22v84c-27 -17 -53 -27 -80 -27c-15 0 -29 5 -40 12c-9 5 -16 11 -19 20c-3 8 -5 28 -5 59v136h126v82h-126v135h-75c-3 -27 -9 -50 -18 -67c-9 -18 -21 -33 -36 -46c-14 -12 -31 -22 -53 -29v-75h58z" />
    <glyph glyph-name="twitter" unicode="twitter" horiz-adv-x="778" 
d="M768 546c-22 -32 -48 -59 -79 -82c1 -7 1 -14 1 -21c0 -208 -158 -448 -448 -448c-89 0 -172 27 -242 71c12 -1 25 -3 38 -3c74 0 141 26 195 68c-70 1 -127 48 -147 110c9 -2 20 -3 30 -3c14 0 29 2 42 6c-73 14 -127 77 -127 153v2c22 -11 45 -18 71 -19
c-42 29 -70 77 -70 131c0 29 8 56 21 80c78 -95 194 -159 325 -165c-2 11 -4 24 -4 36c0 87 70 158 157 158c46 0 87 -20 116 -51c36 7 69 21 99 39c-11 -37 -36 -69 -68 -88c32 4 61 13 90 26z" />
    <glyph glyph-name="underline" unicode="underline" horiz-adv-x="665" 
d="M0 638l2 -37c4 -1 10 -2 18 -2c16 0 35 -1 49 -5s18 -12 20 -27c2 -16 2 -36 2 -53v-18v-140c0 -53 3 -100 19 -139c17 -39 47 -71 102 -91c39 -14 82 -20 124 -20s90 7 133 22c42 15 80 42 104 81c10 18 17 44 21 71c3 26 4 50 4 72c0 7 0 31 -2 59c0 14 -1 29 -1 45
c-2 32 -3 60 -4 79c-1 8 -2 14 -2 16c-2 8 -2 15 -2 23s3 14 8 17c11 7 29 9 46 10c8 1 17 2 23 4c2 4 2 8 2 12c0 7 -1 15 -3 22h-4h-5c-11 0 -22 0 -33 -2c-11 -1 -23 -2 -34 -2c-25 0 -48 1 -72 3s-47 3 -72 1v-35c4 -2 14 -2 25 -2h15c5 1 9 1 11 1c13 0 24 -5 33 -14
c2 -2 5 -10 7 -20c2 -11 4 -24 6 -39c3 -30 7 -67 8 -100c2 -34 3 -62 3 -73c0 -67 -10 -117 -39 -151c-28 -34 -73 -51 -146 -51c-91 0 -137 57 -142 142c-3 79 -6 156 -6 235c0 23 2 40 4 48c5 18 18 21 43 19c11 -1 28 0 46 3v3c0 5 0 12 -1 17c-1 6 -1 11 0 16
c-56 -2 -116 -4 -173 -4c-19 0 -40 1 -59 2c-19 2 -41 3 -61 3h-9c-2 0 -5 -1 -8 -1zM0 -27h666v68h-666v-68z" />
    <glyph glyph-name="undo" unicode="undo" horiz-adv-x="581" 
d="M248 393v-26v-40c0 -14 -11 -20 -22 -12l-217 156c-12 8 -12 23 0 31l217 157c11 8 22 3 22 -11v-39v-26c49 0 150 -6 216 -49c151 -99 238 -423 -256 -587c0 0 298 149 246 354c-13 55 -74 104 -206 92z" />
    <glyph glyph-name="unlock" unicode="unlock" horiz-adv-x="550" 
d="M468 334h67c9 0 16 -8 16 -17v-352c0 -9 -7 -16 -16 -16h-519c-9 0 -16 7 -16 16v352c0 9 7 17 16 17h368v1v155c0 51 -42 94 -94 94h-31c-51 0 -93 -43 -93 -94v-59h-85v67c0 92 59 168 150 168h86c92 0 151 -76 151 -168v-164zM228 51h94l-23 101c16 8 27 25 27 44
c0 29 -23 51 -51 51s-50 -22 -50 -51c0 -19 11 -36 27 -44z" />
    <glyph glyph-name="up" unicode="up" 
d="M360 317l-245 -245l-115 118l354 355l363 -363l-112 -112z" />
    <glyph glyph-name="upload" unicode="upload" 
d="M132 381h129v-211c0 -18 15 -33 33 -33h129c18 0 34 15 34 33v211h129c17 0 22 9 10 22l-214 213c-6 7 -15 11 -24 11s-17 -4 -23 -11l-213 -213c-12 -13 -8 -22 10 -22zM0 232v-228c0 -10 5 -16 16 -16h684c11 0 17 6 17 16v228c0 10 -8 18 -17 18h-65
c-9 0 -17 -9 -17 -18v-145h-520v145c0 10 -7 18 -16 18h-66c-9 0 -16 -9 -16 -18z" />
    <glyph glyph-name="user" unicode="user" 
d="M646 138c47 -26 74 -70 71 -115c-3 -28 -3 -29 -39 -33c-23 -3 -163 -5 -307 -5c-163 0 -333 2 -346 5c-48 13 -22 102 43 143c50 33 152 82 179 88c38 8 43 31 1 106c-10 17 -22 68 -23 122c-2 86 16 145 91 173c14 5 30 8 45 8c50 0 97 -28 116 -69
c27 -55 16 -199 -13 -251c-32 -60 -29 -78 8 -88c24 -6 99 -43 174 -84z" />
    <glyph glyph-name="vertical" unicode="vertical" 
d="M68 651h237c37 0 68 -30 68 -68v-551c0 -38 -31 -69 -68 -69h-237c-37 0 -68 31 -68 69v551c0 38 31 68 68 68zM665 372h-52c3 35 -7 69 -34 96c-20 20 -47 33 -75 35v-69l-100 96l100 92v-68c41 -2 79 -19 110 -50c37 -36 54 -85 51 -132zM44 98h286v423h-286v-423z
M412 337h237c37 0 68 -31 68 -69v-236c0 -38 -31 -69 -68 -69h-261c10 12 18 28 22 44h178v286h-176v44zM186 4c20 0 37 18 37 38s-17 37 -37 37s-36 -17 -36 -37s16 -38 36 -38z" />
    <glyph glyph-name="video" unicode="video" horiz-adv-x="768" 
d="M496 396l219 126c29 17 53 5 53 -30v-372c0 -34 -24 -48 -53 -31l-219 127v-94c0 -35 -28 -63 -63 -63h-372c-34 0 -61 28 -61 63v371c0 35 27 62 61 62h372c35 0 63 -27 63 -62v-97z" />
    <glyph glyph-name="view" unicode="view" horiz-adv-x="794" 
d="M397 376c38 0 69 -31 69 -69s-31 -68 -69 -68s-68 30 -68 68s30 69 68 69zM397 546c226 0 389 -212 389 -212c11 -14 11 -39 0 -53c0 0 -163 -212 -389 -212s-389 212 -389 212c-11 14 -11 39 0 53c0 0 163 212 389 212zM397 136c94 0 171 77 171 171s-77 171 -171 171
s-171 -77 -171 -171s77 -171 171 -171z" />
    <glyph glyph-name="volume" unicode="volume" horiz-adv-x="315" 
d="M0 382v-150c0 -9 7 -15 15 -15h84l169 -129c27 -28 47 -18 47 20v399c0 39 -20 47 -47 19l-169 -129h-84c-8 0 -15 -6 -15 -15z" />
    <glyph glyph-name="volumedown" unicode="volumedown" horiz-adv-x="463" 
d="M0 382v-150c0 -9 7 -15 15 -15h84l169 -129c27 -28 47 -19 47 20v399c0 38 -20 47 -47 19l-169 -129h-84c-8 0 -15 -7 -15 -15zM380 145c5 -3 10 -5 15 -5c12 0 22 6 28 17c28 47 41 97 41 150c0 52 -13 103 -41 151c-9 15 -28 19 -43 11s-20 -28 -12 -43
c23 -38 32 -78 32 -119s-9 -81 -32 -119c-8 -15 -3 -35 12 -43z" />
    <glyph glyph-name="volumeup" unicode="volumeup" 
d="M582 -5c5 -4 11 -5 17 -5c10 0 22 5 27 14c60 91 91 193 91 301c0 109 -31 211 -91 303c-9 13 -29 16 -44 8c-15 -9 -19 -29 -10 -44c53 -81 81 -172 81 -267c0 -94 -29 -185 -81 -267c-9 -13 -5 -34 10 -43zM481 70c4 -4 11 -5 17 -5c10 0 21 5 26 14
c44 70 66 145 66 226c0 82 -22 157 -65 227c-10 15 -29 20 -44 10c-15 -8 -19 -28 -10 -43c75 -119 75 -267 0 -386c-9 -15 -5 -35 10 -43zM0 381v-151c0 -9 7 -15 15 -15h84l169 -129c27 -27 47 -19 47 19v401c0 38 -20 46 -47 19l-169 -129h-84c-8 0 -15 -7 -15 -15z
M380 143c5 -3 10 -5 15 -5c12 0 22 7 28 17c28 48 41 98 41 150c0 53 -13 104 -41 152c-9 15 -28 19 -43 11s-20 -28 -12 -43c23 -39 32 -78 32 -120c0 -41 -9 -80 -32 -119c-8 -15 -3 -35 12 -43z" />
    <glyph glyph-name="walking" unicode="walking" horiz-adv-x="499" 
d="M304 593c0 40 -33 73 -74 73c-40 0 -72 -33 -72 -73c0 -41 32 -73 72 -73c41 0 74 32 74 73zM225 -51h-65s-3 185 2 207c4 22 47 68 49 86c2 19 -17 97 -17 97s-43 -39 -57 -46s-124 -25 -124 -25l-13 56s105 23 120 35c15 11 55 108 85 120c20 9 74 5 101 5
c28 0 120 -53 129 -65c10 -11 65 -119 65 -119l-50 -28l-40 86s-31 26 -43 30c-13 4 -30 9 -33 -2c-4 -10 23 -92 30 -115c6 -24 39 -133 51 -156s83 -125 83 -125l-61 -40s-87 118 -98 135c-12 17 -46 108 -46 108s-58 -71 -63 -93c-4 -20 -5 -151 -5 -151z" />
    <glyph glyph-name="web" unicode="web" 
d="M0 318v1c9 116 51 203 124 258c72 56 150 83 235 83c89 1 172 -29 246 -89c75 -59 112 -147 112 -261v-3v-2v-2c0 -115 -37 -201 -112 -260c-75 -60 -158 -90 -247 -90h-2h-2c-87 1 -167 31 -241 91c-74 59 -112 150 -113 274zM337 475v158h-24c-5 -6 -9 -13 -13 -19
s-8 -12 -12 -19c-4 -6 -9 -14 -12 -20c-4 -6 -7 -12 -10 -19c-6 -10 -11 -20 -15 -29c-5 -9 -9 -18 -12 -26c6 -4 13 -9 21 -12c9 -3 18 -6 27 -8c10 -2 19 -3 27 -4c9 -1 17 -2 23 -2zM379 633v-157c5 0 11 -1 17 0c6 0 13 1 19 2c11 2 24 5 34 8c11 4 21 9 28 15
c-12 29 -25 52 -38 74s-28 41 -44 57v1h-16zM271 624v1c-7 -3 -14 -8 -22 -11c-7 -3 -16 -7 -23 -11c-14 -7 -28 -15 -42 -24c-13 -9 -26 -19 -37 -29c4 -4 9 -8 13 -11s9 -7 14 -11c4 -2 9 -5 14 -9c5 -3 11 -7 17 -11c8 18 16 37 26 54c10 18 21 35 32 50c1 2 2 4 4 6
c1 1 2 4 4 6zM577 550v1c-25 19 -47 35 -69 45s-44 20 -64 28c16 -16 30 -36 39 -55c10 -20 20 -41 28 -61c4 2 9 4 15 8c5 3 12 6 18 9c6 4 11 8 17 12c6 5 12 9 16 13zM560 327h115c0 37 -8 72 -23 108c-14 35 -34 64 -59 89v1c-5 -8 -12 -15 -19 -20
c-8 -5 -15 -9 -23 -13c-5 -3 -10 -7 -15 -9c-5 -3 -12 -5 -17 -8c4 -8 8 -17 12 -25c3 -9 8 -19 10 -28c6 -16 10 -33 14 -50c3 -15 5 -31 5 -45zM198 475v1c-8 4 -17 7 -24 11c-7 5 -14 10 -20 14c-6 3 -12 7 -17 11s-9 8 -13 12c-26 -25 -45 -53 -57 -86
c-13 -33 -22 -70 -26 -110h123c0 28 4 55 11 82c6 28 15 49 23 65zM337 328v115c-8 -1 -18 -1 -27 0c-10 1 -20 4 -29 7c-8 2 -18 4 -26 7c-9 2 -18 6 -25 10c-6 -10 -11 -22 -15 -35c-5 -12 -8 -25 -11 -37c-2 -12 -3 -25 -4 -36s-2 -22 -2 -31h139zM379 441v-113h148
c0 6 0 13 -1 21c-2 7 -3 16 -4 24c-3 12 -6 25 -10 37c-4 11 -8 22 -13 31c-2 5 -4 11 -6 15c-3 5 -6 8 -8 11c-11 -8 -26 -13 -44 -17c-17 -4 -37 -8 -55 -9h-3h-4zM164 295h-123c0 -17 3 -36 8 -59c5 -24 15 -46 26 -70c5 -12 11 -24 17 -36c7 -11 15 -23 23 -34
c6 4 12 7 17 10c6 3 13 7 19 10c7 3 14 6 22 10c7 3 16 7 25 11c-8 25 -17 49 -23 76c-7 26 -11 52 -11 81v1zM337 178v117h-139c0 -8 1 -20 3 -32c1 -12 4 -25 6 -38c4 -14 7 -28 11 -40s8 -22 12 -31c18 7 36 12 48 15c13 4 25 7 37 8h11c4 1 8 1 11 1zM379 295v-116
c7 -1 15 -2 23 -3c9 -1 20 -3 29 -5l15 -3c5 -2 11 -3 16 -4c6 -2 12 -3 18 -5c5 -2 10 -3 14 -5c13 33 21 60 26 83c5 22 7 41 7 57v1h-148zM675 294v1h-115v-3v-3c-1 -19 -4 -41 -8 -64c-4 -22 -13 -48 -25 -80c16 -8 31 -16 43 -24s23 -17 31 -25c17 17 32 40 45 70
c13 29 22 59 27 91c1 6 1 12 2 18v19zM337 -10v156c-25 -4 -46 -9 -62 -13s-28 -8 -36 -12c6 -15 12 -28 18 -40c6 -11 13 -23 19 -33c2 -4 6 -8 9 -13c3 -4 5 -9 8 -13c3 -5 6 -11 9 -17c4 -5 7 -11 11 -15h24zM379 -10h23c9 7 18 17 25 28c8 11 17 24 23 35
c7 13 14 25 20 37s11 23 15 31c-11 4 -26 8 -41 12s-36 8 -65 12v-155zM577 72v1c-2 3 -6 7 -9 10s-8 7 -13 10c-4 3 -9 6 -15 9s-14 7 -21 11c-4 -8 -11 -22 -21 -41c-9 -19 -25 -42 -45 -67c25 4 47 13 67 25c22 11 41 26 57 42zM205 104v1c-7 -4 -18 -9 -29 -14
c-12 -5 -25 -11 -37 -19c7 -6 14 -12 20 -16c6 -5 13 -9 19 -13c11 -7 24 -14 37 -20s29 -12 49 -18c-7 8 -12 18 -17 26s-11 16 -16 24s-9 17 -13 25c-5 8 -9 16 -13 24z" />
    <glyph glyph-name="wifi" unicode="wifi" horiz-adv-x="819" 
d="M486 178c-43 42 -110 42 -153 0c-42 -42 -42 -110 0 -153c43 -42 110 -42 153 0c42 43 42 111 0 153zM260 251c-28 -28 -46 -61 -55 -97l-67 65c14 34 35 64 63 91c115 116 302 116 417 0c27 -27 49 -57 63 -91l-67 -65c-9 36 -27 69 -55 97c-83 83 -217 83 -299 0z
M127 384c-26 -27 -49 -56 -66 -87l-61 61c19 30 42 58 68 85c188 188 496 188 684 0c26 -27 48 -55 67 -85l-61 -61c-17 31 -40 60 -66 87c-156 156 -409 156 -565 0z" />
    <glyph glyph-name="youtube" unicode="youtube" horiz-adv-x="609" 
d="M98 485v-125h52v125l70 206h-55l-41 -134l-41 134h-57zM238 477c0 -46 4 -63 10 -81c11 -29 31 -43 62 -43s52 14 63 43c6 18 10 35 10 81s-4 71 -10 89c-11 29 -32 43 -63 43s-51 -14 -62 -43c-6 -19 -10 -43 -10 -89zM554 360v242h-48v-145c0 -15 -1 -27 -3 -33
c-3 -12 -10 -17 -19 -17s-15 5 -18 15c-1 6 -2 17 -2 31v149h-46v-184c0 -43 15 -65 46 -65c18 0 34 11 43 34v-27h47zM334 482v-18c0 -29 0 -29 -1 -33c-3 -20 -11 -31 -23 -31c-13 0 -20 12 -23 36v37v16c0 25 0 41 1 46c3 18 10 26 22 26s20 -11 23 -30c1 -6 1 -22 1 -49
zM102 326h405c56 0 102 -47 102 -103v-197c0 -56 -46 -103 -102 -103h-405c-56 0 -102 47 -102 103v197c0 56 46 103 102 103zM138 218h42v42h-121v-42h42v-214h37v214zM356 4v21c6 -16 17 -26 31 -26c17 0 29 12 34 37c3 12 5 33 5 63c0 31 -2 53 -4 66
c-5 25 -18 37 -35 37c-13 0 -23 -8 -29 -22v80h-33v-256h31zM482 94h68v15c0 36 -4 59 -10 71c-8 14 -22 22 -40 22c-19 0 -33 -8 -41 -21c-5 -8 -9 -20 -10 -36c-1 -7 -2 -21 -2 -39c0 -23 1 -38 2 -46c1 -18 5 -33 11 -43c8 -12 22 -18 39 -18s30 5 38 15s12 26 12 49v4v4
h-33c0 -26 -5 -38 -16 -38c-8 0 -14 6 -16 18c-2 6 -2 17 -2 31v12zM261 4h34v193h-35v-123c0 -11 0 -19 -2 -24c-2 -8 -6 -12 -13 -12c-6 0 -11 3 -13 11c-2 4 -2 12 -2 22v126h-32v-151c0 -31 9 -47 32 -47c13 0 24 9 31 25v-20zM482 130v3c-1 11 0 21 3 27c3 5 8 8 14 8
c7 0 12 -4 14 -11c2 -5 2 -13 2 -24v-8h-33v5zM376 165c8 0 13 -10 15 -27v-38s0 -35 -1 -38c-1 -17 -6 -26 -14 -26c-9 0 -16 7 -18 21c-1 5 -1 17 -1 35c0 25 0 39 1 43c2 19 8 30 18 30z" />
    <glyph glyph-name="zoomin" unicode="&#x7a;oomin" 
d="M541 173l176 -176l-72 -73l-184 185c-45 -25 -97 -39 -151 -39c-171 0 -310 139 -310 310s139 310 310 310s311 -139 311 -310c0 -80 -31 -153 -80 -207zM86 380c0 -124 100 -223 224 -223c123 0 224 99 224 223s-101 223 -224 223c-124 0 -224 -99 -224 -223zM346 415
h124v-71h-124v-123h-71v123h-123v71h123v124h71v-124z" />
    <glyph glyph-name="zoomout" unicode="&#x7a;oomout" 
d="M541 173l176 -176l-72 -73l-184 185c-45 -25 -97 -39 -151 -39c-171 0 -310 139 -310 310s139 310 310 310s311 -139 311 -310c0 -80 -31 -153 -80 -207zM86 380c0 -124 100 -223 224 -223c123 0 224 99 224 223s-101 223 -224 223c-124 0 -224 -99 -224 -223zM142 415
h337v-71h-337v71z" />
    <glyph glyph-name="brush" unicode="brush" 
d="M680 626l11 -12s54 -54 5 -104c-42 -41 -89 -43 -145 -79c-67 -41 -103 -100 -95 -135c15 -65 92 -118 25 -186c-5 -4 -15 -16 -19 -20c0 0 3 -21 -20 -21c0 0 5 -22 -20 -22l-152 152l-5 5l-151 151c0 24 21 21 21 21c0 16 14 19 20 19c0 0 14 15 20 21
c67 68 122 -11 185 -25c36 -9 96 27 137 94c35 57 36 104 78 146c50 50 105 -5 105 -5zM594 597c-19 -19 -19 -51 0 -70s52 -20 71 -1s19 53 0 72s-52 18 -71 -1zM3 201l-3 40l82 82l305 -307l-81 -83l-41 5l-4 48l-48 4l-3 51l-49 2l-4 49l-48 3l-5 49l-49 4l-3 49z" />
    <glyph glyph-name="buffalo" unicode="buffalo" horiz-adv-x="3034" 
d="M524 520l-41 -149c-11 -42 -50 -62 -70 -64c29 -6 46 -29 36 -66l-37 -138c-13 -53 -54 -83 -109 -83h-303l154 574h314c40 0 66 -37 56 -74zM716 123l126 471h149l-131 -489c-13 -49 -60 -85 -114 -85h-224c-39 0 -65 37 -55 75l134 499h149l-127 -477
c-3 -10 4 -16 10 -16h54c11 0 25 7 29 22zM1123 319l43 159c6 26 28 36 43 36h189c9 35 24 63 57 80h-321c-38 0 -93 -25 -109 -85l-130 -489h148l59 219h177l43 80h-199zM1553 319l43 159c6 26 28 36 43 36h212c8 35 24 63 58 80h-345c-38 0 -93 -25 -109 -85l-130 -489
h149l58 219h177l43 80h-199zM1627 20l331 516c25 39 66 58 106 58h102l-57 -574h-143l13 139h-167l-89 -139h-96zM2286 509l-111 -414c-11 -40 19 -75 54 -75h296c-27 20 -41 41 -41 81h-143c-6 0 -14 6 -11 16l128 477h-61c-46 0 -96 -29 -111 -85zM2532 109l108 400
c16 63 72 85 110 85h226c42 0 66 -38 56 -73l-111 -416c-13 -49 -58 -85 -113 -85h-209c-45 0 -79 43 -67 89zM334 370l35 129c2 7 -2 15 -12 15h-75l-45 -166h69c11 0 24 7 28 22zM2784 493l-100 -376c-3 -10 4 -16 10 -16h54c11 0 25 7 29 22l100 376c2 7 -2 15 -11 15
h-55c-13 0 -24 -10 -27 -21zM2010 466l-146 -227h124zM268 123l35 129c2 7 -2 15 -12 15h-76l-44 -166h69c11 0 24 7 28 22z" />
    <glyph glyph-name="dailycalendar" unicode="dailycalendar" horiz-adv-x="665" 
d="M558 560h57c28 0 51 -22 51 -49v-486c0 -28 -23 -51 -51 -51h-565c-28 0 -50 23 -50 51v486c0 27 22 49 50 49h58v6c0 17 5 36 18 50c12 13 32 24 62 24c31 0 52 -11 65 -24c12 -14 17 -34 17 -50v-6h125v6c0 17 6 36 19 50c12 13 32 24 63 24c30 0 51 -11 64 -24
c12 -14 17 -34 17 -50v-6zM221 479v87c0 16 -10 24 -33 24c-22 0 -31 -8 -31 -24v-87c0 -16 9 -23 31 -23c23 0 33 7 33 23zM509 479v87c0 16 -12 24 -32 24c-23 0 -33 -8 -33 -24v-87c0 -16 10 -23 33 -23c22 0 32 7 32 23zM68 42h530v353h-530v-353zM161 262h50
c0 13 3 24 10 33c6 8 17 13 30 13c9 0 18 -3 25 -9s12 -15 12 -26c0 -7 -2 -13 -6 -17c-3 -4 -9 -8 -14 -10s-11 -4 -17 -4c-7 -1 -14 -1 -19 0v-37c6 0 14 0 21 -1c6 0 13 -1 18 -4c6 -2 12 -6 16 -12c3 -5 5 -12 5 -21c0 -13 -4 -23 -12 -30c-8 -8 -18 -11 -30 -11
c-7 0 -15 1 -20 4s-10 6 -14 10c-3 5 -6 11 -8 17s-3 13 -3 20h-50c0 -15 2 -29 7 -40c4 -12 10 -21 19 -29c8 -8 19 -15 30 -19c12 -4 26 -6 40 -6c12 0 25 2 36 6c11 3 21 8 30 15s17 17 22 27c5 11 8 23 8 37s-4 27 -12 38c-8 10 -20 17 -34 20v1c12 3 21 10 27 20
c6 9 9 21 9 33c0 11 -2 21 -7 30s-13 17 -21 23s-17 10 -27 13s-21 5 -31 5c-13 0 -26 -2 -37 -6c-10 -5 -20 -11 -28 -18c-7 -8 -13 -18 -18 -29c-4 -10 -6 -23 -7 -36zM445 255v-167h53v258h-42c-1 -10 -5 -18 -10 -24c-4 -7 -10 -13 -16 -17c-7 -4 -14 -7 -23 -8
c-8 -2 -17 -2 -26 -2v-40h64z" />
    <glyph glyph-name="coffee" unicode="coffee" horiz-adv-x="696" 
d="M397 347c-3 67 -7 103 -47 147c-51 57 -70 112 -28 197c11 -57 15 -108 55 -139s73 -115 20 -205zM322 347c-2 36 -4 54 -26 79c-27 30 -38 59 -15 105c6 -31 7 -58 29 -74s41 -62 12 -110zM503 31h182c11 0 15 -8 8 -17c0 0 -71 -91 -169 -91h-351s-169 91 -169 91
c-7 9 -4 17 7 17h180c-25 13 -62 70 -62 141v150h438v-12c14 12 31 18 49 18c25 0 72 -26 72 -71c0 -65 -43 -89 -68 -106c0 0 -47 -37 -80 -80c-11 -19 -24 -34 -37 -40zM616 301c-16 0 -36 -7 -49 -39v-83c0 -11 -1 -24 -3 -35c22 22 48 37 48 37c16 11 48 32 48 73
c1 29 -26 47 -44 47zM205 289h-28v-41h28v41zM205 224h-28v-67s8 -90 65 -117c-35 41 -37 88 -37 117v67z" />
    <glyph glyph-name="dark" unicode="dark" horiz-adv-x="549" 
d="M312 555v-7c0 -27 -12 -40 -37 -40s-36 13 -36 40v7c0 26 11 39 36 39s37 -13 37 -39zM386 523l5 6c15 22 33 25 52 11c20 -14 23 -33 8 -55l-6 -5c-15 -22 -33 -25 -52 -10c-20 14 -22 31 -7 53zM160 529l4 -6c15 -22 13 -39 -6 -53c-20 -15 -39 -12 -54 10l-4 5
c-15 22 -13 41 6 55c20 14 39 9 54 -11zM275 463c85 0 155 -70 155 -156c0 -85 -70 -154 -155 -154c-86 0 -155 69 -155 154c0 86 69 156 155 156zM51 419l7 -2c26 -8 34 -23 27 -47c-8 -24 -24 -31 -49 -23l-7 2c-25 8 -34 23 -27 47c8 24 24 31 49 23zM492 417l7 2
c26 8 42 1 49 -23s-1 -39 -27 -47l-6 -2c-26 -8 -42 -1 -49 23c-8 24 1 39 26 47zM275 221c47 0 86 39 86 86c0 48 -39 87 -86 87c-48 0 -87 -39 -87 -87c0 -47 39 -86 87 -86zM29 266l7 2c25 8 41 2 49 -22c7 -24 -1 -39 -27 -47l-7 -2c-25 -8 -41 -2 -49 22
c-7 24 2 39 27 47zM515 268l6 -2c26 -8 34 -23 27 -47s-23 -30 -49 -22l-7 2c-25 8 -34 23 -26 47c7 24 23 30 49 22zM100 129l4 6c15 22 34 24 54 10c19 -14 21 -31 6 -53l-4 -6c-15 -22 -34 -24 -54 -10c-19 14 -21 31 -6 53zM445 135l6 -6c15 -22 12 -39 -8 -53
c-19 -14 -37 -12 -52 10l-5 6c-15 22 -13 39 7 53c19 14 37 12 52 -10zM312 68v-8c0 -27 -12 -40 -37 -40s-36 13 -36 40v8c0 27 11 40 36 40s37 -13 37 -40z" />
    <glyph glyph-name="eraser" unicode="eraser" horiz-adv-x="666" 
d="M68 378l254 254c23 23 58 23 81 0l246 -246c23 -23 23 -59 0 -82l-254 -254c-90 -90 -236 -90 -327 0c-90 90 -90 238 0 328zM354 91l-245 246c-68 -68 -68 -178 0 -246s177 -68 245 0z" />
    <glyph glyph-name="grayscale" unicode="grayscale" horiz-adv-x="768" 
d="M0 8v598h768v-598h-768zM383 122v-63h64v63h65v61h-65v63h65v61h-65v62h65v61h-65v63h65v62h-65v-62h-64v62h-65v-62h-62v62h-205v-496h267v63h65zM383 493v-63h-65v63h65zM256 369v61h62v-61h-62zM447 369h-64v61h64v-61zM318 369h65v-62h-65v62zM256 246v61h62v-61h-62
zM447 246h-64v61h64v-61zM318 183v63h65v-63h-65zM256 122v61h62v-61h-62zM383 183h64v-61h-64v61z" />
    <glyph glyph-name="ink" unicode="ink" horiz-adv-x="542" 
d="M500 340c-6 10 -18 26 -33 48c-16 22 -34 46 -52 74c-18 29 -38 59 -56 93c-17 34 -32 68 -43 104c-3 11 -9 20 -17 25s-18 7 -28 6c-9 1 -18 -1 -27 -6c-8 -5 -15 -14 -18 -25c-11 -36 -26 -70 -43 -104s-36 -64 -54 -93c-19 -28 -37 -52 -52 -74
c-16 -22 -27 -38 -34 -48c-13 -20 -25 -44 -32 -68c-7 -25 -11 -49 -11 -77c0 -38 8 -73 22 -106c13 -34 32 -62 57 -87c26 -25 54 -44 87 -58s68 -21 105 -21c38 0 73 7 107 21c33 14 61 33 86 58s44 53 57 87c14 33 22 68 22 106c0 28 -5 52 -12 77c-7 24 -18 48 -31 68z
M186 67c-18 0 -35 6 -47 19c-13 13 -20 30 -20 48c0 14 4 26 11 37c2 2 4 6 8 11s10 12 14 19c5 7 9 15 13 23s8 17 10 26c2 7 6 10 11 8c6 1 11 -1 12 -8c3 -8 6 -18 11 -26c4 -8 9 -16 13 -23c5 -7 10 -14 14 -19s6 -9 8 -11c7 -10 11 -23 11 -37c0 -18 -8 -35 -21 -48
c-12 -13 -29 -19 -48 -19z" />
    <glyph glyph-name="invert" unicode="invert" horiz-adv-x="768" 
d="M0 606h768v-598h-768v598zM384 59v71l177 177l-177 177v71h-333v-496h333zM384 130l-177 177l177 177v-354z" />
    <glyph glyph-name="light" unicode="light" horiz-adv-x="687" 
d="M380 627v-79c0 -27 -12 -40 -37 -40s-37 13 -37 40v79c0 26 12 39 37 39s37 -13 37 -39zM455 523l46 65c15 20 34 24 53 10s21 -32 6 -54l-46 -64c-15 -22 -33 -24 -53 -10c-19 14 -21 31 -6 53zM185 587l47 -64c15 -22 13 -39 -7 -53c-19 -15 -37 -12 -52 10l-47 64
c-15 22 -13 39 7 53c19 15 37 12 52 -10zM343 463c86 0 156 -70 156 -156c0 -85 -70 -154 -156 -154s-156 69 -156 154c0 86 70 156 156 156zM51 441l76 -24c25 -8 34 -23 26 -47c-7 -24 -24 -31 -50 -23l-74 24c-25 8 -34 24 -27 48c8 23 24 30 49 22zM560 417l75 24
c26 8 42 1 49 -22c8 -24 -1 -40 -27 -47l-74 -25c-25 -8 -41 -1 -49 23c-7 24 1 39 26 47zM343 221c48 0 87 39 87 86c0 48 -39 87 -87 87s-86 -39 -86 -87c0 -47 38 -86 86 -86zM29 244l75 24c25 8 42 2 49 -22c8 -24 -1 -39 -26 -47l-76 -25c-25 -8 -41 -1 -49 23
c-7 24 2 39 27 47zM583 268l75 -24c25 -8 34 -23 26 -47c-7 -24 -23 -31 -49 -23l-75 25c-26 8 -33 23 -26 47c8 24 24 30 49 22zM126 72l47 63c15 22 33 25 52 10c20 -14 22 -31 7 -53l-47 -63c-15 -22 -33 -26 -53 -12c-19 14 -21 33 -6 55zM514 135l46 -63
c15 -22 13 -41 -6 -55s-38 -9 -53 11l-46 64c-15 22 -13 39 6 53c20 14 38 12 53 -10zM380 68v-79c0 -27 -12 -40 -37 -40s-37 13 -37 40v79c0 27 12 40 37 40s37 -13 37 -40z" />
    <glyph glyph-name="palette" unicode="palette" horiz-adv-x="768" 
d="M767 506c15 50 -112 130 -227 135c-223 9 -515 -108 -539 -365c-18 -206 194 -312 350 -312c157 0 306 121 322 187c16 68 -143 49 -132 157c16 153 204 125 226 198zM531 541c0 -26 -20 -46 -45 -46c-26 0 -46 20 -46 46c0 25 20 45 46 45c25 0 45 -20 45 -45zM407 517
c0 -28 -22 -50 -49 -50s-49 22 -49 50c0 26 22 48 49 48s49 -22 49 -48zM288 452c0 -29 -22 -52 -51 -52c-28 0 -51 23 -51 52c0 27 23 49 51 49c29 0 51 -22 51 -49zM188 338c0 -29 -24 -53 -53 -53c-31 0 -55 24 -55 53c0 31 24 55 55 55c29 0 53 -24 53 -55zM463 146
c0 -38 -32 -69 -71 -69c-38 0 -69 31 -69 69c0 39 31 72 69 72c39 0 71 -33 71 -72z" />
    <glyph glyph-name="refreshbutton" unicode="refreshbutton" 
d="M358 666c198 0 359 -161 359 -359s-161 -358 -359 -358s-358 160 -358 358s160 359 358 359zM198 298h-69c0 -60 23 -120 67 -165c90 -89 235 -89 325 0c89 90 89 236 0 325c-42 41 -94 63 -148 66v77l-175 -114l175 -113v82c37 -3 71 -18 99 -46c63 -62 63 -166 0 -228
c-62 -63 -165 -63 -227 0c-33 31 -48 74 -47 116z" />
    <glyph glyph-name="sepia" unicode="sepia" horiz-adv-x="768" 
d="M49 257c-60 -42 -24 -95 26 -98c50 -4 92 -38 80 -79c-22 -70 -8 -128 106 -70c58 29 97 101 172 -30c44 -77 156 -26 141 62c-7 43 17 69 101 94c153 45 88 172 12 204s-87 87 -60 143c26 54 -48 141 -113 83c-52 -46 -117 -4 -118 12s-57 133 -90 34
c-22 -63 13 -172 -181 -59c-123 72 -183 -113 -49 -178c63 -31 33 -77 -27 -118z" />
    <glyph glyph-name="download" unicode="download" 
d="M586 383h-129v211c0 18 -15 33 -33 33h-129c-19 0 -34 -15 -34 -33v-211h-129c-17 0 -23 -11 -10 -24l214 -213c6 -6 14 -9 23 -9s18 3 24 9l213 213c12 13 8 24 -10 24zM0 232v-228c0 -10 5 -16 16 -16h684c11 0 17 6 17 16v228c0 10 -8 17 -17 17h-65
c-9 0 -17 -8 -17 -17v-145h-520v145c0 10 -7 17 -16 17h-66c-9 0 -16 -8 -16 -17z" />
    <glyph glyph-name="windows" unicode="windows" horiz-adv-x="768" 
d="M444 572l-73 -253s-83 58 -144 52c-60 -6 -141 -36 -141 -36l74 255s153 82 284 -18zM410 295l73 251c22 -15 61 -42 124 -50c63 -7 161 33 161 33l-73 -253c-11 -4 -57 -30 -141 -35c-85 -5 -144 54 -144 54zM0 36l73 255s82 38 151 33c68 -4 123 -42 134 -51l-73 -255
s-84 55 -142 50s-109 -15 -143 -32zM324 -4l73 253s78 -51 129 -49c51 1 86 4 155 31h1c-5 -13 -73 -251 -73 -251s-80 -38 -154 -34c-73 3 -117 45 -131 50z" />
    <glyph glyph-name="emphasis" unicode="emphasis" horiz-adv-x="560" 
d="M525 111c0 0 34 -4 35 -4c-4 -43 -27 -110 -40 -132c-51 1 -143 2 -222 2h-125c-46 0 -101 -1 -173 -2v29l53 5c44 6 49 11 49 87v308c0 75 -5 80 -49 88l-30 4v29v0c45 -2 101 -3 147 -3h203c62 0 116 1 129 3c1 -13 7 -72 12 -127l-36 -4c-10 29 -23 53 -36 65
c-18 15 -47 25 -94 25h-77c-31 0 -31 -1 -31 -32v-144c0 -24 1 -25 27 -25h66c50 0 61 6 71 45l5 21s35 0 35 -1c-2 -26 -3 -56 -3 -87c0 -32 1 -62 3 -88c0 -1 -36 -1 -35 -1l-5 21c-10 39 -21 46 -71 46h-66c-26 0 -27 -1 -27 -26v-98c0 -38 4 -64 15 -78
c13 -15 31 -22 101 -22c83 0 116 3 169 96zM340 635c0 39 -31 70 -70 70c-38 0 -70 -31 -70 -70c0 -38 32 -70 70 -70c39 0 70 32 70 70z" />
    <glyph glyph-name="gree" unicode="gree" horiz-adv-x="618" 
d="M0 122l309 -172l309 172v356l-309 172l-309 -172v-356z" />
    <glyph glyph-name="gumroad" unicode="gumroad" horiz-adv-x="595" 
d="M85 88v382c0 20 23 43 42 43h310c14 -25 41 -43 73 -43c47 0 85 39 85 85c0 48 -38 85 -85 85c-32 0 -59 -17 -73 -42h-310c-31 0 -63 -15 -88 -39c-25 -25 -39 -57 -39 -89v-382c0 -32 14 -64 39 -89c25 -24 57 -39 88 -39h341c31 0 63 15 88 39c25 25 39 57 39 89v212
c0 35 -14 68 -40 92c-24 23 -56 36 -87 36h-170c-34 0 -66 -14 -91 -40c-23 -24 -37 -56 -37 -88v-42c0 -32 14 -64 39 -88c25 -25 57 -40 89 -40h11c15 -25 42 -42 74 -42c47 0 85 38 85 85s-38 85 -85 85c-32 0 -59 -17 -74 -43h-11c-20 0 -43 24 -43 43v42
c0 20 19 43 43 43h170c19 0 42 -19 42 -43v-212c0 -19 -23 -43 -42 -43h-341c-19 0 -42 24 -42 43z" />
    <glyph glyph-name="instagram" unicode="instagram" horiz-adv-x="680" 
d="M680 365v207c0 37 -31 68 -68 68h-544c-37 0 -68 -31 -68 -68v-207h165c26 71 95 122 175 122s149 -51 175 -122h165zM680 305h-153v-5c0 -103 -84 -187 -187 -187s-187 84 -187 187v5h-153v-277c0 -37 31 -68 68 -68h544c37 0 68 31 68 68v277zM59 580h34v-156h-34v156z
M127 580h34v-156h-34v156zM195 580h34v-98c-11 -8 -23 -17 -34 -26v124zM340 172c71 0 127 57 127 128s-56 127 -127 127s-128 -56 -128 -127s57 -128 128 -128zM459 580h161v-156h-108c-14 21 -33 38 -53 52v104z" />
    <glyph glyph-name="jpa" unicode="jpa" horiz-adv-x="1547" 
d="M162 386c-3 0 -4 1 -6 2c-1 2 -1 4 -1 7s0 6 1 7c2 2 3 3 6 3c2 0 4 -1 5 -3c1 -1 2 -4 2 -7s-1 -5 -2 -7c-1 -1 -3 -2 -5 -2zM269 500c-1 0 -3 0 -4 1c-2 1 -3 4 -3 7c0 2 1 4 1 6c1 2 3 4 6 4s4 -1 5 -3s2 -4 2 -6c0 -3 -1 -5 -2 -7s-3 -2 -5 -2zM234 385
c-1 0 -2 0 -3 1c0 0 -1 1 -1 3c0 1 1 2 2 3s2 1 4 1l2 1h2l1 1v-3c0 -3 -1 -5 -2 -6s-3 -1 -5 -1zM73 396h-11l5 16zM237 507h1c1 0 2 1 3 1h1v-2c0 -3 -1 -5 -2 -6c-2 -1 -3 -1 -5 -1h-3c0 1 -1 2 -1 3c0 2 1 3 2 4c1 0 2 1 4 1zM272 460c-1 -1 -2 -1 -4 -1h-8v12h8
c2 0 3 -1 4 -2c2 0 2 -2 2 -4s0 -4 -2 -5zM299 461c2 0 3 0 5 -1c1 -1 2 -3 2 -5h-14c0 2 1 4 2 5s3 1 5 1zM299 405c2 0 4 -1 5 -3c1 -1 2 -4 2 -7s-1 -5 -2 -7c-1 -1 -3 -2 -5 -2c-3 0 -5 1 -6 2c-1 2 -2 4 -2 7s1 6 2 7c1 2 3 3 6 3zM374 542h868
c169 0 305 -120 305 -267v-325h-1122c-168 0 -305 119 -305 266v98c-70 26 -120 88 -120 161c0 97 87 175 194 175c82 0 151 -45 180 -108zM325 524h-7v-30h8v16v5c1 2 3 3 6 3c2 0 3 -1 4 -2s1 -2 1 -4v-18h8v20c0 4 -1 7 -3 8c-2 2 -5 3 -8 3c-2 0 -4 -1 -6 -2l-3 -3v4z
M336 402c1 -1 1 -2 1 -3v-19h8v21c0 3 -1 6 -3 8c-2 1 -5 2 -8 2c-2 0 -4 0 -6 -2c-1 0 -2 -2 -3 -3v4h-7v-30h8v17v4c1 2 3 4 6 4c2 0 3 -1 4 -3zM337 478v-41h8v41h-8zM324 467h-7v-30h8v14c0 3 0 5 1 6c1 2 3 3 6 3h1h1v8v0h-1c-2 0 -4 -1 -6 -2c0 -1 -2 -2 -3 -4v5z
M303 518c1 -1 2 -2 2 -3s-1 -2 -2 -2s-2 -1 -3 -1h-3c-3 -1 -5 -1 -7 -2c-3 -2 -4 -4 -4 -8c0 -3 1 -5 3 -7c1 -1 4 -2 6 -2c3 0 5 0 6 1c2 1 3 2 4 3v-2c0 0 0 -1 1 -1h8v1s-1 0 -1 1v2v3v14c0 4 -2 6 -4 8c-3 1 -6 2 -9 2c-5 0 -9 -2 -11 -4c-1 -2 -2 -4 -2 -7h8
c0 1 0 2 1 3c0 1 2 1 4 1h3zM295 443c-2 2 -3 4 -3 7h22v6c-1 2 -1 4 -3 6c-1 2 -3 4 -5 5s-4 1 -7 1c-4 0 -8 -1 -11 -4s-4 -7 -4 -12c0 -6 2 -10 5 -12c3 -3 6 -4 10 -4c5 0 9 1 12 4l3 6h-8c-1 -1 -1 -2 -2 -2c-1 -1 -3 -2 -4 -2c-2 0 -4 1 -5 1zM314 395c0 5 -1 8 -4 12
c-2 3 -6 4 -11 4c-6 0 -10 -1 -12 -4c-3 -4 -4 -7 -4 -12c0 -4 1 -8 4 -11c2 -3 6 -5 12 -5c5 0 9 2 11 5c3 3 4 7 4 11zM262 524h-7v-42h8v16c0 -2 1 -3 2 -3c2 -1 4 -2 6 -2c4 0 7 1 10 4c2 3 3 7 3 12s-1 9 -4 12c-2 2 -5 4 -9 4c-2 0 -4 -1 -6 -2l-3 -3v4zM269 478h-17
v-41h8v15h9c4 0 8 1 10 3s4 5 4 10c0 4 -2 8 -4 10s-6 3 -10 3zM271 421v-7h8v7h-8zM279 380v30h-8v-30h8zM264 386c-1 1 -1 1 -1 3v15h5v6h-5v9h-8v-9h-4v-6h4v-18c0 -2 1 -3 2 -4c1 -2 3 -2 7 -2h4v6h-1h-1h-2zM241 518c1 -1 1 -2 1 -3s0 -2 -2 -2c0 0 -1 -1 -3 -1h-2
c-4 -1 -6 -1 -7 -2c-3 -2 -5 -4 -5 -8c0 -3 1 -5 3 -7c2 -1 4 -2 7 -2c2 0 4 0 6 1l3 3c0 0 0 -1 1 -2v-1h9v1c-1 0 -1 0 -1 1c-1 0 -1 1 -1 2v3v14c0 4 -1 6 -4 8c-2 1 -5 2 -9 2c-5 0 -8 -2 -11 -4c-1 -2 -2 -4 -2 -7h8c0 1 0 2 1 3s2 1 4 1h4zM227 396c-3 -1 -5 -4 -5 -8
c0 -3 1 -5 3 -6c2 -2 4 -3 7 -3c2 0 4 1 6 2c1 1 2 2 4 3v-2v-2h9v1l-1 1c-1 1 -1 1 -1 2v4v14c0 3 -1 6 -4 7c-2 1 -5 2 -9 2c-5 0 -8 -1 -10 -4c-2 -2 -2 -4 -3 -6h8c0 1 1 2 1 2c1 1 2 2 4 2s3 0 4 -1c1 0 1 -1 1 -3c0 -1 0 -1 -1 -2h-4l-2 -1c-3 0 -6 -1 -7 -2zM202 509
h-9v-1c0 -4 1 -8 3 -11s5 -4 11 -4c5 0 8 2 10 5c2 2 2 5 2 8v29h-8v-29c0 -2 -1 -3 -1 -4c-1 -2 -2 -2 -4 -2s-3 0 -3 2c-1 1 -1 3 -1 6v1zM211 421v-7h8v7h-8zM219 380v30h-8v-30h8zM183 407c-2 -3 -4 -7 -4 -12s2 -9 4 -12c2 -2 6 -4 11 -4c4 0 8 2 11 5c1 2 2 5 2 7h-8
c0 -1 -1 -3 -1 -4c-1 -1 -2 -1 -4 -1c-3 0 -5 1 -6 4v5v5c1 3 3 4 6 4c2 0 3 0 4 -1s1 -2 1 -3h8c0 4 -2 7 -4 9c-2 1 -6 2 -9 2c-5 0 -8 -1 -11 -4zM150 407c-2 -4 -4 -7 -4 -12c0 -4 2 -8 4 -11c3 -3 7 -5 12 -5s9 2 11 5c3 3 4 7 4 11c0 5 -1 8 -4 12c-2 3 -6 4 -11 4
s-9 -1 -12 -4zM75 389l2 -9h10l-15 41h-9l-15 -41h9l3 9h15zM112 382c2 2 3 4 3 7s-1 4 -2 6c-2 1 -4 3 -7 3c-5 1 -8 2 -9 3c-1 0 -1 1 -1 2c0 0 0 1 1 1c1 1 2 1 4 1s3 0 4 -1s1 -2 1 -3h8c0 4 -2 6 -4 8s-5 2 -9 2s-7 -1 -10 -3c-2 -2 -3 -4 -3 -7c0 -2 1 -4 2 -5
c2 -2 4 -3 8 -4s7 -2 8 -2s1 -1 1 -2s-1 -2 -1 -2c-1 -1 -3 -1 -4 -1c-3 0 -5 1 -6 2c0 0 -1 1 -1 3h-8c0 -3 1 -6 4 -8c2 -2 5 -3 10 -3s8 1 11 3zM141 382c2 2 4 4 4 7s-1 4 -3 6c-1 1 -4 3 -7 3c-5 1 -7 2 -8 3c-1 0 -1 1 -1 2c0 0 0 1 1 1c1 1 2 1 3 1c3 0 4 0 5 -1
c0 -1 1 -2 1 -3h8c-1 4 -2 6 -4 8c-3 2 -6 2 -10 2s-7 -1 -9 -3s-3 -4 -3 -7c0 -2 1 -4 2 -5c1 -2 4 -3 7 -4c5 -1 8 -2 8 -2c1 0 2 -1 2 -2s-1 -2 -2 -2c-1 -1 -2 -1 -4 -1s-4 1 -5 2c-1 0 -1 1 -1 3h-8c0 -3 1 -6 3 -8c3 -2 6 -3 11 -3s8 1 10 3zM425 -25h1097v300
c0 134 -125 242 -280 242h-859c4 -13 6 -27 6 -42c0 -96 -87 -175 -195 -175c-17 0 -33 2 -49 6v-90c0 -133 126 -241 280 -241zM299 507h2c1 0 2 1 2 1h2v-2c0 -3 -1 -5 -3 -6c-1 -1 -3 -1 -4 -1h-3c-1 1 -1 2 -1 3c0 2 0 3 2 4c0 0 2 1 3 1zM1153 475h69
c139 0 251 -93 251 -207v-254h-64v244c0 86 -91 156 -202 156h-54v-166h192v-64h-192v-170h-64v461h64zM459 75h55v400h64v-461h-64h-70c-138 0 -251 93 -251 208v22h67v-17c0 -84 89 -152 199 -152zM704 475h144c57 0 107 -25 141 -64c25 -30 41 -68 41 -110
s-16 -80 -41 -110c-34 -39 -84 -64 -141 -64h-80v18v46h62h26c58 6 103 53 103 110s-45 104 -103 110h-26h-123h-3v-4v-212v-4v-64v-113h-64v113v64v220v64h64z" />
    <glyph glyph-name="mobage" unicode="mobage" horiz-adv-x="700" 
d="M654 418c115 142 -22 252 -22 252s34 -107 -55 -147c-61 57 -144 91 -234 91c-189 0 -343 -153 -343 -341c0 -190 154 -343 343 -343c190 0 344 153 344 343c0 51 -12 101 -33 145zM556 212c-27 -92 -111 -159 -213 -159c-121 0 -220 98 -220 220c0 99 66 182 157 210
c-6 -20 -9 -40 -9 -62c0 -121 98 -219 220 -219c22 0 44 3 65 10z" />
    <glyph glyph-name="strike" unicode="strike" horiz-adv-x="700" 
d="M0 331h700v-62h-700v62zM370 395l64 -34h-255c-18 27 -29 60 -29 97c-1 116 89 195 237 195c33 0 75 -4 116 -16c13 -4 23 -6 35 -8c8 -23 18 -78 18 -146c0 0 -39 -3 -40 -3c-17 52 -61 126 -134 126c-68 0 -104 -44 -104 -95c0 -47 41 -89 92 -116zM443 97
c0 66 -50 111 -102 142h223c11 -24 18 -52 18 -85c0 -126 -103 -207 -258 -207c-93 0 -152 26 -173 38c-20 23 -33 96 -33 166l39 3c20 -66 89 -160 176 -160c75 0 110 52 110 103z" />
    <glyph glyph-name="yapcasia" unicode="yapcasia" horiz-adv-x="800" 
d="M65 -47h6v45h12v6h-30v-6h12v-45zM170 -22c0 15 -12 27 -26 27s-26 -12 -26 -27s11 -26 26 -26c14 0 26 11 26 26zM164 -22c0 -11 -9 -20 -20 -20s-20 9 -20 20s8 21 20 21s20 -10 20 -21zM245 4h-8l-21 -22v22h-7v-51h7v21l2 3l19 -24h8l-22 28zM285 4h-8l17 -29v-22h6
v22l16 29h-7l-12 -22zM403 -22c0 15 -12 27 -26 27c-15 0 -27 -12 -27 -27s12 -26 27 -26c14 0 26 11 26 26zM397 -22c0 -11 -10 -20 -20 -20c-11 0 -20 9 -20 20s8 21 20 21c11 0 20 -10 20 -21zM506 -47v6h-20l17 20c2 3 3 7 3 10c0 9 -7 16 -15 16c-9 0 -15 -7 -16 -15h6
c0 5 5 9 10 9s9 -5 9 -10c0 -3 -2 -6 -4 -9l-22 -27h32zM596 -22c0 15 -11 27 -26 27c-14 0 -26 -12 -26 -27s12 -26 26 -26c15 0 26 11 26 26zM590 -22c0 -11 -9 -20 -20 -20s-20 9 -20 20s8 21 20 21s20 -10 20 -21zM639 4l-4 -6h9v-45h6v51h-11zM731 -47v6h-20l17 20
c2 3 3 7 3 10c0 9 -7 16 -16 16s-14 -7 -15 -15h6c0 5 4 9 9 9c6 0 10 -5 10 -10c0 -3 -2 -6 -4 -9l-22 -27h32zM497 97h-22l11 33zM795 78c4 -4 5 -9 5 -14c0 -4 -1 -10 -6 -14c-4 -4 -9 -5 -14 -5h-23c-5 1 -10 1 -14 5c-2 1 -3 2 -3 3l-3 -3c-5 -4 -10 -5 -14 -5h-20
c-4 0 -8 1 -13 4c-4 -3 -8 -4 -12 -4h-45c-5 0 -10 1 -15 5c-1 1 -1 2 -2 3c-9 -7 -20 -10 -33 -10c-5 0 -10 0 -14 1c-3 0 -5 1 -7 1v0c-4 -2 -7 -2 -10 -2c-4 0 -9 1 -14 5v0c-4 -2 -8 -3 -12 -3h-23c-4 1 -9 1 -14 5l-3 3l-3 -3c-4 -4 -9 -5 -14 -5h-20c-5 1 -10 1 -14 5
c-3 3 -5 6 -6 10c-3 -1 -6 -2 -9 -2v0c-7 0 -13 3 -18 7v0h-1c-5 -4 -12 -7 -18 -7h-1c-5 0 -11 2 -15 5c-1 -1 -2 -3 -4 -5c-3 -3 -7 -6 -12 -8c-9 -5 -20 -7 -31 -7h-1c-15 0 -29 6 -39 17c-7 7 -12 17 -14 27c-7 -5 -16 -8 -26 -9v0c5 -4 6 -9 6 -14c0 -4 -1 -10 -6 -14
c-4 -4 -9 -5 -14 -5h-26c-4 0 -8 1 -13 4c-4 -3 -8 -4 -12 -4h-23c-5 1 -10 1 -14 5c-2 1 -3 2 -3 3l-3 -3c-5 -4 -10 -5 -15 -5h-19c-5 1 -9 1 -14 4c-4 -3 -8 -4 -13 -4h-40c-4 0 -9 1 -14 5c-4 4 -5 10 -5 14c0 5 1 10 5 14c5 4 10 5 14 5v4l-18 33c-3 1 -6 2 -8 5
c-4 4 -5 9 -5 13c0 5 1 10 6 14c4 4 9 5 14 5h20c4 0 8 -1 12 -4c4 3 9 4 13 4h17c5 0 10 -1 14 -5h1h1c4 4 9 5 14 5h29c4 0 8 -1 12 -4c3 -3 6 -6 7 -10c0 0 0 -1 1 -1l21 -60c2 -1 4 -1 5 -3c1 1 2 1 3 2v41c-2 0 -4 2 -5 3c-4 4 -5 9 -5 13c0 5 1 10 6 14c4 4 9 5 14 5
h32c13 0 25 -2 34 -9c4 -3 7 -7 9 -11c2 2 3 4 5 6c10 11 24 17 39 17c5 0 9 -1 14 -2c2 0 4 -1 6 -2v1c3 2 7 3 10 3c4 0 9 -2 13 -6c3 -4 4 -7 4 -11c5 4 11 6 17 6s13 -2 18 -7v0h1c5 5 12 7 18 7c7 0 14 -2 19 -7c2 -2 3 -4 5 -7v3c0 5 1 10 5 14c5 4 10 5 15 5h28
c4 0 9 -1 12 -4c4 -3 6 -6 8 -10v-1l21 -58c0 3 1 7 5 11c1 1 3 2 4 3c-5 6 -7 14 -7 22c0 11 5 22 13 29c9 7 20 11 32 11c5 0 9 -1 13 -2c2 0 3 -1 5 -1v0c4 2 7 3 10 3c4 -1 8 -1 13 -6c4 2 8 3 12 3h45c5 0 10 -1 15 -5c3 -2 4 -6 5 -9c0 4 2 7 5 9c5 4 10 5 14 5h29
c4 0 9 -1 12 -4c4 -3 6 -6 7 -10l1 -1l21 -60c3 -1 6 -2 8 -4zM79 58c1 1 2 3 2 6s-1 5 -2 7c-2 1 -4 1 -8 1h-10v19l21 39h1c3 0 5 1 6 2c2 1 3 4 3 6c0 3 -1 6 -3 7c-1 1 -3 2 -7 2h-17c-4 0 -6 -1 -7 -2s-2 -4 -2 -7c0 -2 1 -5 2 -6s3 -2 5 -2h1l-12 -25l-12 25h1
c3 0 4 1 6 2c1 1 1 4 1 6c0 3 0 6 -2 7c-1 1 -3 2 -6 2h-20c-4 0 -6 -1 -8 -2c-1 -1 -2 -4 -2 -7c0 -2 1 -5 2 -6c2 -1 4 -2 6 -2h2l22 -41v-17h-11c-3 0 -6 0 -7 -1c-1 -2 -2 -4 -2 -7s1 -5 2 -6c2 -2 4 -2 7 -2h40c4 0 6 0 8 2zM72 89v-6c4 0 8 -1 12 -4l6 3l14 39
c-2 0 -4 1 -6 3l-1 1v0c-3 -3 -6 -4 -8 -5zM182 58c2 1 3 3 3 6s-1 5 -2 6c-2 2 -4 2 -7 2h-1l-24 67v0c-2 5 -6 8 -10 8h-29c-3 0 -6 -1 -7 -2c-2 -1 -3 -4 -3 -7s1 -5 3 -6c1 -1 4 -2 7 -2h6l-20 -58h-2c-2 0 -5 0 -6 -2c-1 -1 -2 -3 -2 -6s1 -5 2 -6c2 -2 4 -2 8 -2h19
c4 0 6 0 8 2c1 1 2 3 2 6s-1 5 -2 7c-2 1 -4 1 -8 1h-2l3 9h33l3 -9h-2c-4 0 -6 0 -8 -1c-1 -2 -2 -4 -2 -7s1 -5 2 -6c2 -2 4 -2 8 -2h23c3 0 6 0 7 2zM260 96c7 5 10 12 10 22s-3 17 -10 22c-6 4 -16 7 -28 7h-32c-3 0 -6 -1 -7 -2c-2 -2 -3 -4 -3 -7c0 -2 1 -5 3 -6
c1 -1 3 -2 6 -2h1v-58h-1c-3 0 -5 0 -7 -2c-1 -1 -2 -3 -2 -6s1 -5 3 -6c1 -2 3 -2 7 -2h26c4 0 6 0 8 2c1 1 2 3 2 6s-1 5 -2 7c-2 1 -4 1 -8 1h-7v16h13c12 0 22 3 28 8zM409 135c-3 -3 -5 -6 -5 -11c0 -4 2 -8 5 -10c3 -3 7 -4 11 -4c5 0 9 1 12 4c3 2 4 6 4 10
c0 5 -1 8 -4 11c-3 2 -7 4 -12 4s-8 -2 -11 -4zM371 135c-3 -3 -4 -6 -4 -11c0 -4 1 -8 4 -10c3 -3 7 -4 12 -4s8 1 11 4c3 2 5 6 5 10c0 5 -2 8 -5 11c-3 2 -6 4 -11 4s-9 -2 -12 -4zM347 59c8 4 12 8 12 13c0 2 -1 5 -2 6c-2 2 -3 3 -5 3s-6 -2 -13 -6
c-6 -3 -12 -5 -17 -5c-8 0 -14 3 -19 8c-4 6 -6 13 -6 23s2 18 6 23c4 6 10 8 18 8c6 0 10 -1 13 -3c2 -2 5 -5 6 -10c1 -3 2 -5 3 -6s3 -1 5 -1c3 0 5 0 6 1c1 2 2 4 2 8v20c0 3 -1 5 -2 6c-1 2 -3 2 -5 2s-3 0 -4 -1s-2 -2 -3 -4c-4 2 -8 3 -12 4c-3 1 -7 1 -11 1
c-12 0 -23 -4 -32 -13c-8 -9 -12 -21 -12 -35s4 -26 12 -34c9 -9 19 -14 33 -14c10 0 19 2 27 6zM364 101c1 1 2 2 4 3c-2 0 -3 1 -4 2c0 1 -1 1 -1 2c-1 -1 -1 -1 -1 -2c-5 -4 -10 -5 -14 -5s-8 1 -12 4c-4 4 -5 7 -6 11s-2 5 -3 5c0 0 -2 1 -6 1c-5 0 -7 -1 -10 -4
c-2 -3 -4 -8 -4 -17c0 -8 2 -14 4 -16c3 -3 5 -5 11 -5c3 0 7 1 12 4c4 2 7 4 9 5c3 1 4 2 9 2c2 0 4 0 6 -1c1 4 3 8 6 11zM394 73c3 2 5 6 5 10c0 5 -2 8 -5 11c-3 2 -6 4 -11 4s-9 -2 -12 -4c-3 -3 -4 -7 -4 -11s1 -7 4 -10s7 -4 12 -4s8 1 11 4zM402 101v0l3 3
c-1 0 -2 1 -3 2v0h-1c-1 -1 -2 -2 -3 -2l3 -3h1zM432 73c3 2 4 6 4 10c0 5 -1 8 -4 11c-3 2 -7 4 -12 4c-4 0 -8 -2 -11 -4c-3 -3 -5 -7 -5 -11s2 -7 5 -10s7 -4 11 -4c5 0 9 1 12 4zM435 104c2 -1 3 -2 4 -3c3 -2 5 -6 6 -10l11 30c-3 0 -5 1 -7 3c-1 1 -2 3 -3 4v-4
c0 -6 -2 -13 -7 -18c-1 -1 -2 -2 -4 -2zM534 58c1 1 2 3 2 6s-1 5 -2 6c-1 2 -4 2 -6 2h-2l-24 67v0c-2 5 -5 8 -10 8h-28c-4 0 -6 -1 -8 -2c-1 -1 -2 -4 -2 -7s1 -5 2 -6c2 -1 4 -2 8 -2h6l-21 -58h-1c-3 0 -5 0 -7 -2c-1 -1 -2 -3 -2 -6s1 -5 3 -6c1 -2 4 -2 7 -2h20
c3 0 6 0 7 2c2 1 3 3 3 6s-1 5 -3 7c-1 1 -4 1 -7 1h-3l4 9h33l3 -9h-3c-3 0 -6 0 -7 -1c-2 -2 -3 -4 -3 -7s1 -5 3 -6c1 -2 4 -2 7 -2h23c4 0 6 0 8 2zM610 61c7 5 10 12 10 22c0 7 -2 13 -7 18c-4 4 -11 7 -21 10c-1 0 -3 0 -5 1c-13 2 -20 6 -20 11c0 3 2 6 4 8
c3 2 7 3 12 3c3 0 6 -1 9 -2c3 -2 5 -4 7 -7v-2c2 -4 5 -6 8 -6s5 1 7 2c1 1 1 3 1 7v0v15c0 3 -1 6 -1 7c-1 1 -3 1 -6 1c-2 0 -4 0 -5 -1c-1 0 -1 -1 -2 -3c-4 2 -7 3 -10 3c-4 1 -7 1 -11 1c-10 0 -19 -2 -25 -8c-7 -6 -10 -13 -10 -21c0 -7 2 -13 6 -17s11 -7 20 -9
c3 -1 5 -2 9 -2c12 -3 18 -7 18 -13c0 -3 -2 -6 -4 -8c-3 -2 -7 -3 -11 -3c-5 0 -10 1 -13 3c-4 2 -7 5 -9 9c0 0 0 1 -1 2c-2 5 -5 8 -8 8s-6 -1 -7 -2c-1 -2 -2 -4 -2 -7v-1v-18c1 -4 1 -6 3 -7c1 -1 3 -2 6 -2c2 0 4 1 5 1l3 3c3 -1 7 -2 10 -3c4 0 8 -1 13 -1
c12 0 21 3 27 8zM571 83l3 -3c2 -1 5 -2 9 -2c1 0 3 0 3 1c-1 0 -4 2 -8 3c-3 0 -5 1 -7 1zM588 122l-1 1c-1 1 -2 1 -4 1h-3c3 -1 5 -2 8 -2zM618 110c1 -1 2 -1 2 -2c7 -7 10 -16 10 -25v0h3h2v37h-2c-3 0 -5 0 -8 1c0 -3 -2 -6 -4 -9c-1 -1 -2 -1 -3 -2zM686 58
c1 1 2 3 2 6s-1 5 -2 7c-2 1 -4 1 -8 1h-13v58h13c4 0 6 1 8 2c1 1 2 3 2 6s-1 5 -2 7c-2 1 -4 2 -8 2h-45c-4 0 -6 -1 -8 -2c-1 -2 -2 -4 -2 -7s1 -5 2 -6c2 -1 4 -2 8 -2h13v-58h-13c-4 0 -6 0 -8 -1c-1 -2 -2 -4 -2 -7s1 -5 2 -6c2 -2 4 -2 8 -2h45c4 0 6 0 8 2zM676 83
h2c4 0 8 -1 13 -3c1 1 3 1 4 2l14 39c-2 0 -4 1 -6 3c-3 3 -5 6 -5 9c-1 -3 -2 -6 -5 -9c-5 -4 -10 -4 -15 -4h-2v-37zM788 58c1 1 2 3 2 6s-1 5 -2 6c-2 2 -4 2 -7 2h-1l-24 67v0c-2 5 -5 8 -10 8h-29c-3 0 -6 -1 -7 -2c-2 -1 -3 -4 -3 -7s1 -5 3 -6c1 -1 4 -2 7 -2h6
l-20 -58h-2c-2 0 -4 0 -6 -2c-1 -1 -2 -3 -2 -6s1 -5 2 -6c2 -2 4 -2 8 -2h20c3 0 6 0 7 2c2 1 2 3 2 6s0 5 -2 7c-1 1 -4 1 -7 1h-3l3 9h33l4 -9h-3c-4 0 -6 0 -8 -1c-1 -2 -2 -4 -2 -7s1 -5 2 -6c2 -2 4 -2 8 -2h23c4 0 6 0 8 2zM751 97h-22l11 33zM243 127
c3 -2 5 -5 5 -9s-2 -7 -5 -9s-7 -3 -14 -3h-10v24h10c6 0 11 -1 14 -3zM237 117v1v0v0c0 1 -3 2 -8 2v0v-4v0c5 0 8 1 8 1zM146 97h-23l12 33zM573 406c0 -63 -34 -119 -85 -149l10 -40c1 -5 -1 -11 -4 -16c-4 -4 -9 -7 -15 -7h-43c-2 0 -4 0 -6 1c-2 -1 -5 -1 -7 -1h-46
c-2 0 -4 0 -7 1c-2 -1 -4 -1 -6 -1h-43c-6 0 -11 3 -15 7c-3 5 -5 11 -3 16l9 40c-51 30 -85 86 -85 149c0 86 62 158 145 171l8 55c2 9 10 16 19 16c10 0 18 -7 19 -16l9 -55c83 -12 146 -84 146 -171zM481 457h-162l29 -51h104zM407 579l-8 50l-8 -50l-4 -27h24zM424 512
l14 27h-76l14 -27v0l-6 -42h60l-6 42v0zM321 213h43l2 23l13 156h-17l-33 -144zM379 234l-2 -21h46l-2 21l-13 158h-16zM436 213h43l-8 35l-33 144h-17l13 -156z" />
    <glyph glyph-name="yapcasialogo" unicode="yapcasialogo" horiz-adv-x="2671" 
d="M612 274c0 -112 -61 -209 -150 -263l16 -70c2 -10 0 -20 -7 -28c-6 -8 -16 -13 -26 -13h-75c-4 0 -8 1 -12 2c-4 -1 -8 -2 -12 -2h-81c-4 0 -8 1 -11 2c-4 -1 -8 -2 -12 -2h-75c-11 0 -20 5 -27 13c-6 8 -8 18 -6 28l16 70c-90 54 -150 151 -150 263
c0 152 111 278 256 302l15 96c3 16 17 28 33 28c17 0 31 -12 33 -28l16 -96c146 -23 259 -149 259 -302zM448 363h-284l50 -90h183zM318 579l-14 87l-13 -87l-8 -48h43zM348 461l25 47h-135l25 -47v0l-10 -75h106l-10 75h-1zM167 -66h75l3 40l24 274h-31l-57 -253zM268 -29
l-3 -37h81l-3 37l-24 277h-27zM370 -66h75l-14 61l-58 253h-30l23 -274zM829 31h15v107h28v14h-72v-14h29v-107zM1083 92c0 34 -29 63 -64 63c-34 0 -63 -29 -63 -63c0 -36 28 -64 63 -64s64 28 64 64zM1068 92c0 -28 -22 -49 -49 -49c-26 0 -48 21 -48 49c0 26 20 48 48 48
c29 0 49 -22 49 -48zM1264 152h-20l-51 -52v52h-15v-121h15v51l6 5l46 -56h20l-55 67zM1359 152h-17l40 -68v-53h15v53l39 68h-17l-30 -52zM1645 92c0 34 -29 63 -63 63c-35 0 -64 -29 -64 -63c0 -36 29 -64 64 -64s63 28 63 64zM1630 92c0 -28 -22 -49 -48 -49
s-49 21 -49 49c0 26 20 48 49 48c28 0 48 -22 48 -48zM1896 31v14h-49l40 48c5 7 9 16 9 25c0 21 -18 37 -38 37c-22 0 -36 -15 -39 -36h15c1 12 11 22 24 22c12 0 23 -11 23 -23c0 -8 -5 -16 -10 -22l-53 -65h78zM2113 92c0 34 -28 63 -63 63s-63 -29 -63 -63
c0 -36 28 -64 63 -64s63 28 63 64zM2098 92c0 -28 -22 -49 -48 -49s-48 21 -48 49c0 26 20 48 48 48s48 -22 48 -48zM2215 152l-8 -14h21v-107h14v121h-27zM2439 31v14h-49l40 48c6 7 9 16 9 25c0 21 -17 37 -38 37c-22 0 -36 -15 -38 -36h15c1 12 11 22 23 22
c13 0 24 -11 24 -23c0 -8 -6 -16 -11 -22l-53 -65h78zM1235 395c8 -5 12 -13 12 -23c0 -11 -4 -19 -12 -24c-7 -5 -19 -8 -35 -8h-28v63h28c15 0 27 -3 35 -8zM1221 370v2v1h-1c-1 1 -8 4 -20 4h-2v-10h2c13 -1 20 2 21 3zM2658 268c10 -10 13 -23 13 -34
c0 -12 -3 -27 -15 -37s-25 -11 -37 -12h-59c-12 1 -25 2 -37 12c-3 3 -6 6 -8 9c-1 -3 -4 -6 -7 -9c-12 -10 -25 -11 -37 -12h-51c-10 1 -21 2 -32 8c-10 -6 -21 -8 -31 -8h-118c-12 1 -24 2 -36 12c-3 2 -5 4 -6 7c-23 -18 -53 -25 -86 -25c-13 0 -26 1 -37 3
c-5 1 -11 2 -16 3h-2c-8 -5 -16 -6 -24 -6c-11 0 -23 1 -35 12l-1 1c-10 -6 -21 -7 -30 -7h-60c-12 1 -25 2 -37 12c-3 3 -5 6 -7 9c-2 -3 -5 -6 -8 -9c-12 -10 -25 -11 -37 -12h-51c-12 1 -24 2 -37 12c-8 8 -12 17 -13 26c-8 -3 -16 -4 -24 -4h-1c-17 0 -34 6 -47 17v1
s-1 0 -1 -1c-13 -12 -30 -17 -48 -17v0c-15 0 -29 4 -41 13c-3 -5 -6 -9 -9 -13c-9 -9 -19 -15 -31 -22c-24 -12 -52 -18 -81 -18h-1c-40 0 -76 15 -102 43c-19 20 -30 44 -36 72c-18 -14 -41 -21 -66 -24h1c11 -11 14 -25 14 -36c0 -12 -3 -26 -14 -36
c-12 -11 -25 -13 -37 -13h-68c-10 0 -22 2 -32 9c-11 -7 -22 -9 -32 -9h-60c-12 1 -25 2 -37 12c-3 3 -5 6 -7 9c-2 -3 -5 -6 -8 -9c-12 -10 -25 -11 -36 -12h-52c-11 1 -22 2 -34 10c-11 -8 -22 -10 -33 -10h-103c-12 0 -25 2 -37 12c-11 11 -14 25 -14 37c0 11 2 25 14 36
c12 10 25 11 36 11v10l-46 87c-8 2 -15 6 -21 12c-10 10 -13 24 -13 35s2 25 14 36c12 10 25 12 37 12h51c10 0 22 -2 32 -10c11 9 22 10 32 10h45c12 0 25 -1 37 -12l2 -2c0 1 1 2 2 2c12 10 25 12 37 12h74c10 0 22 -3 31 -10s15 -16 18 -26c1 -1 1 -2 1 -3l57 -155
c4 -1 9 -3 13 -6l6 3v106c-5 2 -9 5 -12 8c-10 10 -13 24 -13 35s3 26 14 36c12 10 25 12 37 12h82c35 0 66 -6 89 -24c10 -7 18 -17 24 -27c3 4 7 9 11 14c26 29 63 44 102 44c12 0 23 -2 34 -4c5 -1 10 -3 15 -5c1 0 1 1 1 1c8 5 17 8 26 8c10 0 25 -4 34 -16
c7 -9 9 -18 10 -27c12 10 28 15 43 15c17 0 35 -5 48 -17c0 -1 0 -1 1 -1v1c13 12 31 17 48 17s35 -5 47 -17c6 -5 10 -11 14 -18c-1 3 -1 5 -1 8c0 12 3 26 15 36s25 12 37 12h74c10 0 22 -3 31 -10s15 -16 18 -26c1 -1 1 -2 1 -3l55 -150c1 9 3 19 12 28c3 4 7 7 11 8
c-13 16 -19 36 -19 56c0 30 13 57 35 76s51 28 83 28c11 0 22 -2 32 -4c4 -1 9 -2 13 -3v0c10 6 18 6 26 7c10 -1 22 -1 34 -14c10 6 20 6 29 7h118c12 -1 25 -1 37 -12c8 -7 12 -15 13 -24c2 9 6 17 14 24c12 10 24 12 36 12h75c10 0 22 -3 31 -10s15 -16 18 -26
c1 -1 1 -2 1 -3l57 -155c6 -2 13 -5 19 -11zM812 217c4 3 6 9 6 17c0 7 -2 13 -6 16s-10 5 -19 5h-26v49l53 99h3c7 0 13 2 16 5c4 4 6 10 6 17c0 8 -2 13 -6 17c-4 3 -10 5 -19 5h-45c-8 0 -13 -2 -16 -5c-4 -4 -5 -9 -5 -17c0 -7 1 -13 4 -17c3 -3 8 -5 14 -5h1l-30 -65
l-31 65h3c6 0 11 2 14 6c3 3 4 9 4 16c0 8 -1 13 -5 17c-3 3 -9 5 -17 5h-51c-9 0 -16 -2 -19 -5c-4 -4 -6 -9 -6 -17c0 -7 2 -13 5 -17c4 -3 9 -5 16 -5h4l56 -105v-43h-26c-9 0 -16 -2 -19 -5c-4 -3 -6 -9 -6 -16c0 -8 2 -14 6 -17c4 -4 10 -5 19 -5h103c8 0 15 1 19 5z
M793 297v-16c11 0 22 -1 33 -9c5 3 10 6 15 7l36 100c-5 2 -11 5 -16 9c-1 1 -2 2 -2 3c-1 0 -1 -1 -1 -1c-6 -6 -14 -10 -21 -12zM1079 217c4 3 6 9 6 17c0 7 -2 12 -6 16c-3 3 -9 5 -16 5h-3l-63 172v1c-5 12 -13 19 -25 19h-74c-9 0 -16 -2 -20 -5c-4 -4 -6 -9 -6 -17
s2 -14 6 -17s11 -5 20 -5h16l-54 -148h-3c-7 0 -13 -2 -16 -5c-4 -4 -6 -9 -6 -16c0 -8 2 -14 6 -17c4 -4 10 -5 19 -5h52c8 0 15 1 19 5c4 3 6 9 6 17c0 7 -2 13 -6 16s-11 5 -19 5h-7l8 23h86l8 -23h-7c-9 0 -16 -2 -19 -5c-4 -3 -6 -9 -6 -16c0 -8 2 -14 6 -17
c3 -4 10 -5 19 -5h60c9 0 15 1 19 5zM1279 315c17 13 25 33 25 58c0 24 -8 43 -25 55c-16 13 -41 19 -73 19h-82c-9 0 -15 -2 -19 -6c-4 -3 -6 -9 -6 -16s2 -13 6 -16c4 -4 9 -6 15 -6h4v-148h-4c-6 0 -12 -2 -15 -5c-4 -4 -6 -9 -6 -16c0 -8 2 -14 6 -17c4 -4 10 -5 19 -5
h68c9 0 15 1 19 5c3 3 5 9 5 17c0 7 -2 13 -5 16c-4 3 -10 5 -19 5h-20v41h34c32 0 57 6 73 19zM1662 415c-8 -7 -11 -15 -11 -26c0 -12 3 -21 11 -28s18 -10 30 -10s22 3 30 10c7 7 11 16 11 28c0 11 -4 19 -11 26c-8 7 -18 10 -30 10s-22 -3 -30 -10zM1566 415
c-8 -7 -12 -15 -12 -26c0 -12 4 -21 12 -28c7 -7 17 -10 29 -10c13 0 23 3 30 10c8 7 11 16 11 28c0 11 -3 19 -11 26c-7 7 -17 10 -30 10c-12 0 -22 -3 -29 -10zM1503 221c20 10 30 21 30 33c0 6 -1 12 -5 16s-8 7 -13 7c-4 0 -15 -5 -32 -14c-16 -9 -32 -14 -46 -14
c-20 0 -35 7 -47 21c-11 14 -16 33 -16 59s5 46 16 60s27 21 47 21c13 0 24 -3 31 -9c8 -5 13 -14 17 -27c2 -7 4 -12 7 -14c3 -3 8 -4 13 -4c8 0 14 1 16 4c3 4 5 10 5 19v51c0 9 -2 15 -5 18c-2 4 -7 5 -13 5c-5 0 -8 -1 -11 -3s-5 -5 -8 -10c-10 5 -20 8 -29 10
s-18 3 -28 3c-33 0 -61 -11 -82 -35c-22 -24 -33 -53 -33 -89c0 -37 11 -66 32 -89c22 -23 50 -35 84 -35c26 0 49 6 70 16zM1548 329c3 2 5 4 8 6c-3 2 -6 4 -8 7c-2 1 -3 3 -4 5c-1 -2 -2 -3 -3 -5c-12 -11 -25 -12 -36 -13c-9 0 -21 3 -30 11c-9 9 -12 17 -16 27
c-2 10 -5 12 -6 13s-6 3 -16 3c-15 0 -20 -3 -26 -10s-11 -21 -11 -44c0 -22 5 -36 11 -43s12 -10 26 -11c8 0 20 3 34 11c8 5 16 8 22 11c7 3 11 5 22 6c5 0 10 -1 15 -3c3 11 9 22 18 29zM1625 256c8 7 12 16 12 27s-4 20 -12 27c-7 6 -17 10 -30 10c-12 0 -22 -4 -29 -11
c-8 -6 -12 -15 -12 -26s4 -20 12 -27c7 -7 17 -11 29 -11c13 0 23 4 30 11zM1644 328c0 1 0 1 1 1c2 2 5 4 8 6c-3 2 -6 4 -9 7v1l-1 -1c-3 -2 -5 -5 -8 -7c3 -1 5 -4 8 -6c0 0 1 0 1 -1zM1722 256c8 7 11 16 11 27s-3 20 -11 27c-8 6 -18 10 -30 10s-22 -4 -30 -11
c-8 -6 -11 -15 -11 -26s3 -20 11 -27s18 -11 30 -11s22 4 30 11zM1731 335c3 -1 6 -3 8 -6c8 -6 14 -15 17 -25l27 75c-5 2 -11 5 -16 9c-4 4 -7 7 -9 11c1 -3 1 -7 1 -10c1 -17 -6 -35 -19 -47c-3 -2 -6 -5 -9 -7zM1985 217c4 3 6 9 6 17c0 7 -2 12 -6 16c-4 3 -9 5 -16 5
h-3l-63 172v1c-5 12 -13 19 -25 19h-74c-9 0 -16 -2 -20 -5c-4 -4 -6 -9 -6 -17s2 -14 6 -17s11 -5 20 -5h15l-53 -148h-3c-7 0 -13 -2 -16 -5c-4 -4 -6 -9 -6 -16c0 -8 2 -14 6 -17c4 -4 10 -5 19 -5h52c8 0 15 1 19 5c4 3 6 9 6 17c0 7 -2 13 -6 16s-11 5 -19 5h-7l8 23
h86l8 -23h-7c-9 0 -16 -2 -20 -5c-3 -3 -5 -9 -5 -16c0 -8 2 -14 5 -17c4 -4 11 -5 20 -5h60c9 0 15 1 19 5zM2182 225c16 13 25 32 25 56c0 20 -6 36 -18 47c-11 11 -29 20 -55 25c-3 1 -7 2 -13 3c-34 7 -50 17 -50 29c0 8 3 15 11 21c7 5 16 8 28 8c10 0 18 -2 25 -6
s13 -10 17 -19c0 -1 1 -2 1 -3c5 -10 12 -15 21 -15c8 0 13 1 16 4c3 4 5 9 5 17v2l-1 38c0 9 -1 14 -4 17c-2 3 -7 4 -14 4c-6 0 -9 0 -12 -2c-2 -2 -5 -5 -7 -9c-8 4 -17 7 -26 9c-8 1 -17 2 -26 2c-27 0 -49 -7 -66 -21c-17 -15 -25 -33 -25 -56c0 -17 5 -31 14 -41
c10 -10 28 -19 54 -25c5 -2 12 -4 21 -6c31 -7 46 -18 46 -32c0 -9 -3 -16 -10 -21s-16 -8 -28 -8c-14 0 -25 3 -34 8s-16 12 -22 23c0 1 -1 4 -3 7c-6 12 -13 18 -21 18s-14 -1 -17 -5c-4 -3 -5 -9 -5 -18v-2l1 -47c0 -8 1 -14 5 -17c3 -3 9 -5 17 -5c5 0 9 1 12 3
c2 1 5 4 7 7c9 -3 18 -6 28 -7c9 -2 20 -3 32 -3c31 0 54 7 71 20zM2081 283c2 -5 5 -7 9 -9s11 -4 21 -4c4 0 7 0 9 1c-4 2 -12 5 -23 8c-6 1 -12 2 -16 4zM2125 382c-1 2 -2 3 -3 3c-3 2 -6 3 -12 3h-5c5 -2 12 -4 20 -6zM2202 352c2 -2 4 -4 6 -5c17 -17 25 -41 25 -66v0
h6h7v96h-7c-6 0 -13 0 -19 2c-1 -7 -4 -15 -11 -22c-2 -2 -4 -4 -7 -5zM2376 217c4 3 6 9 6 17c0 7 -2 13 -6 16c-3 3 -10 5 -19 5h-33v148h33c9 0 16 2 19 5c4 3 6 9 6 17s-2 13 -5 16c-4 4 -11 5 -20 5h-118c-9 0 -15 -1 -19 -5c-4 -3 -6 -8 -6 -16s2 -14 6 -17
s10 -5 19 -5h34v-148h-34c-9 0 -15 -2 -19 -5s-6 -9 -6 -16c0 -8 2 -14 6 -17c4 -4 10 -5 19 -5h118c9 0 15 1 19 5zM2350 281h7c10 0 21 -1 32 -8c4 3 8 5 12 6l36 100c-6 2 -11 5 -16 9c-8 7 -12 16 -14 24c-1 -8 -5 -17 -13 -23c-12 -11 -25 -12 -37 -12h-7v-96z
M2639 217c4 3 6 9 6 17c0 7 -2 12 -6 16c-4 3 -9 5 -16 5h-4l-62 172v1c-5 12 -13 19 -25 19h-75c-9 0 -15 -2 -19 -5c-4 -4 -6 -9 -6 -17s2 -14 6 -17s10 -5 19 -5h16l-53 -148h-3c-7 0 -13 -2 -16 -5c-4 -4 -6 -9 -6 -16c0 -8 2 -14 6 -17c4 -4 10 -5 19 -5h51
c9 0 16 1 20 5c4 3 6 9 6 17c0 7 -2 13 -6 16s-11 5 -20 5h-7l9 23h86l8 -23h-7c-9 0 -16 -2 -20 -5s-5 -9 -5 -16c0 -8 1 -14 5 -17c4 -4 11 -5 20 -5h59c9 0 16 1 20 5zM2544 319h-57l29 84zM1890 319h-57l29 84zM984 319h-57l29 84z" />
    <glyph glyph-name="yapcasialogomark" unicode="yapcasialogomark" horiz-adv-x="550" 
d="M550 277c0 -101 -54 -189 -134 -237l14 -63c2 -9 0 -18 -6 -26c-6 -7 -14 -11 -24 -11h-67c-4 0 -7 1 -11 2c-3 -1 -7 -2 -10 -2h-73c-4 0 -7 1 -11 2c-3 -1 -7 -2 -10 -2h-68c-9 0 -18 4 -24 11c-5 8 -7 17 -5 26l14 63c-81 48 -135 136 -135 237c0 136 100 250 230 271
l14 86c2 15 15 26 30 26s27 -11 30 -26l13 -86c132 -20 233 -134 233 -271zM403 357h-256l46 -81h165zM286 551l-12 79l-12 -79l-7 -43h38zM313 445l23 42h-122l23 -42v0l-9 -68h95l-9 68h-1zM150 -30h68l3 37l21 246h-28l-51 -227zM242 4l-3 -34h73l-3 34l-22 249h-24z
M333 -30h67l-12 56l-52 227h-27l21 -246z" />
    <glyph glyph-name="ltthon" unicode="ltthon" horiz-adv-x="757" 
d="M757 306c3 -49 -14 -78 -27 -114c-9 -25 -20 -50 -32 -73c-5 -2 -9 8 -16 12c-6 5 -11 10 -23 9c13 18 26 40 35 68c8 27 16 53 24 81c6 22 16 39 14 57c-2 20 -18 31 -28 45c-4 21 -12 39 -22 56c-19 34 -44 71 -73 98c-48 43 -96 79 -183 73c-20 -2 -40 -6 -60 -13
c-6 -1 -11 -5 -16 -6c-12 0 -24 8 -37 6c-12 -1 -22 -8 -28 -14c-12 -11 -11 -32 -29 -40c-10 13 -18 29 -28 42c-4 4 -10 6 -12 12c69 27 127 58 225 51c94 -6 157 -57 212 -121c49 -57 96 -135 104 -229zM121 447c-14 7 -50 39 -45 63c3 13 25 19 32 29c14 17 16 41 29 48
c15 10 45 10 61 0c1 -1 2 -3 4 -4c12 -8 37 -48 34 -65c-2 -10 -7 -8 -16 -18c-8 -4 -10 -13 -18 -16c0 -8 0 -15 -2 -20c-23 -13 -50 -32 -79 -17zM299 411c-7 0 -14 -1 -16 4c8 44 39 65 52 103c-16 16 -39 12 -40 35c-1 11 8 24 22 26c18 3 65 -26 75 -36
c6 -6 13 -19 12 -25c-1 -8 -7 -7 -12 -14c-31 3 -49 -6 -51 -32c16 -5 23 7 47 4c16 -2 33 -13 43 -27c13 -18 16 -36 6 -62c-30 -18 -68 -27 -112 -31c-4 8 -1 22 -2 33c-8 7 -24 7 -24 22zM366 395c-1 4 2 12 -4 10c-6 -5 -18 -3 -19 -12c8 -8 14 0 23 2zM354 456
c-13 -4 -37 -16 -35 -25c9 1 15 10 26 12s22 -2 31 0c1 16 -14 15 -22 13zM593 508c13 -2 18 -19 24 -22c6 -10 17 -14 16 -30c-5 -6 -16 -6 -24 -9c-12 -18 -39 -22 -41 -50c-8 -8 -17 -14 -26 -20c-2 -11 -8 -17 -12 -25c2 -23 3 -50 -6 -67c-20 -10 -28 13 -39 29
c-3 5 -7 12 -12 18c-7 10 -16 12 -16 26c-1 14 5 52 10 63c8 17 28 24 30 39c-10 2 -24 -3 -36 0c-16 3 -32 15 -32 28c-1 26 28 19 50 14c9 -2 19 -5 26 -6c22 -3 46 0 61 4c12 3 16 10 27 8zM66 401c-11 2 -22 13 -22 24c-1 11 9 27 20 29c12 1 15 -7 26 -13
c52 -15 90 13 144 8c16 -7 33 -15 34 -36c2 -16 -8 -33 -18 -45c22 -2 37 -10 45 -26c-5 -21 -7 -49 4 -65c35 0 44 26 67 37c10 20 16 44 46 44c17 -19 -3 -33 -16 -50c-9 -12 -13 -25 -22 -35c-17 -18 -48 -25 -71 -36c-10 3 -24 2 -37 2c-9 8 -19 12 -24 26
c-5 15 0 36 -10 49c-12 3 -9 -9 -14 -12c-5 -5 -12 -7 -18 -11c-4 -10 -17 -17 -25 -32c-2 -4 -2 -11 -4 -16c-8 -22 -18 -53 -56 -41c-1 15 -3 29 2 43c2 8 11 13 14 20c4 12 4 27 8 39c9 31 29 63 40 97c-17 2 -28 13 -52 12c-23 -1 -41 -16 -61 -12zM121 74c0 1 0 2 1 3
l5 -6l-1 -1h-1h-2c0 1 -1 1 -1 2c-1 0 -1 1 -1 2zM99 121c0 -1 1 -1 1 -2c1 0 1 -1 1 -2v-1l-2 -2l-1 -1c-1 -1 -1 -1 -2 -1s-1 -1 -2 -1s-1 1 -2 1l-1 1c-1 1 -1 1 -1 2v2c1 0 1 1 2 1c0 1 1 1 1 2c1 0 2 0 2 1h2h2zM40 299c1 0 1 -1 1 -1c1 -1 1 -1 1 -2v-2
c0 -1 -1 -1 -1 -2c-1 0 -1 0 -2 -1h-2h-2c-1 0 -2 0 -2 1c-1 0 -1 0 -2 1v2v2l1 1c1 1 1 1 2 1s1 1 2 1h2c1 -1 2 -1 2 -1zM44 243h-2h-2s-1 1 -1 1c-1 1 -1 1 -1 2c-1 1 -1 2 0 2c0 1 0 1 1 2l1 1c1 0 2 0 2 1h2c1 0 2 0 2 -1c1 0 1 0 2 -1c0 0 1 -1 1 -2v-2l-1 -1
c-1 -1 -1 -1 -2 -1c-1 -1 -1 -1 -2 -1zM63 182c0 1 0 1 -1 1v1l1 1h2h1s1 0 1 -1c1 0 1 -1 2 -2v-1v-1v-1h-1l-1 -1c-1 0 -1 1 -1 1h-1c0 1 -1 1 -1 1v1zM116 96c1 0 1 -1 2 -2c0 0 0 -1 1 -1c0 -1 0 -2 -1 -2c0 -1 0 -1 -1 -2c0 -1 -1 -1 -1 -1l-2 -2h-2h-2l-1 1
c-1 1 -1 2 -1 2v2c0 1 1 1 1 2c1 0 1 1 2 1c0 1 1 1 1 1c1 1 2 1 2 1h2zM144 49c0 1 0 2 1 3l6 -5l-1 -1h-1h-2s-1 0 -2 1s-1 2 -1 2zM200 7c1 0 1 0 2 -1l4 -2l-4 -6l-4 2l-1 1c-1 0 -1 1 -1 1c-1 1 -1 1 -1 2c0 0 0 1 1 2l1 1h2h1zM481 10c19 -21 70 -29 106 -16
c-12 -13 -31 -10 -45 -14c-7 -3 -13 -7 -20 -11c-44 -20 -111 -32 -175 -32c-47 0 -100 10 -143 32c-2 1 -4 5 -6 6c-7 4 -16 6 -23 11c-4 2 -7 7 -12 10c-4 3 -10 3 -14 6c-8 5 -17 13 -24 20c-22 19 -37 40 -55 67c-37 56 -76 115 -69 215c2 31 13 64 24 95
c15 -23 56 -32 85 -16c-6 -23 -11 -52 -10 -83c1 -8 3 -17 2 -25c-1 -10 -9 -18 -12 -28c-8 -33 -5 -72 33 -73c27 -85 77 -147 160 -176c11 -14 26 -42 50 -45c28 -3 53 11 57 41c17 -7 30 -20 55 -12c8 2 14 7 20 12s9 13 16 16zM55 264c0 0 0 1 -1 1c-1 1 -1 1 -2 1h-2
l-19 -3l1 -5l18 3h2v-1v-2l4 1v2s0 2 -1 3zM56 233l-1 4l-18 -4l1 -5zM35 242l3 -3c1 0 2 -1 3 -1h4c1 1 3 1 4 2c1 0 2 1 2 2c1 1 1 2 2 3c0 2 0 3 -1 4c0 2 0 3 -1 4s-1 2 -2 2c-1 1 -2 1 -4 2c-1 0 -2 0 -4 -1c-1 0 -2 0 -3 -1s-2 -1 -3 -2c0 -1 -1 -2 -1 -4v-4
c0 -1 1 -2 1 -3zM46 297c0 2 -1 3 -1 4c-1 1 -2 1 -3 2s-2 1 -3 1c-1 1 -2 1 -3 1c-1 -1 -3 -1 -4 -1c-1 -1 -2 -1 -3 -2c0 -1 -1 -2 -2 -3v-3c0 -2 0 -3 1 -3c0 -1 1 -2 2 -2v-1h-2v-4l24 2v4h-9v0c1 1 2 1 2 2c1 1 1 2 1 3zM42 278h5v6l-6 -1zM26 331v-3s0 -2 1 -3
c0 -1 1 -2 2 -2c-1 -1 -2 -1 -3 -2v-3c0 -2 0 -3 1 -4l2 -2v0h-3v-5l18 1v5l-10 -1c-1 0 -2 1 -2 1c-1 0 -1 0 -2 1v1v1v2h1l1 1h2h10v5h-10h-2h-1c0 1 -1 1 -1 1c0 1 -1 1 -1 2s1 1 1 2l1 1h1h2h10v5h-12c-1 0 -2 0 -3 -1c-1 0 -2 0 -2 -1c-1 -1 -1 -1 -1 -2zM27 272l-4 -1
l1 -5l4 1zM25 262v-5l4 1v5zM48 270v5l-18 -3l1 -5zM31 232l1 -5l4 1l-2 5zM45 214l-9 -3l1 -5l24 7l-1 5l-9 -3h-4s-2 1 -2 2c-1 2 -1 3 0 3c1 1 2 1 3 2l10 2l-2 5l-10 -3c-1 0 -2 0 -3 -1c-1 0 -1 -1 -2 -1c0 -1 -1 -2 -1 -3s0 -2 1 -3c0 -1 0 -2 1 -3c1 0 2 -1 3 -1v0z
M49 193c1 -1 2 -1 3 -2h3h4c1 1 2 1 3 2s2 2 2 3c1 1 1 2 1 3v4c-1 2 -2 4 -4 5c-1 1 -4 1 -6 1l2 -5h3c0 -1 1 -1 1 -2c1 -1 1 -2 0 -2v-2c-1 -1 -1 -1 -2 -1c0 -1 -1 -1 -2 -1c0 0 -1 -1 -2 -1h-2c0 1 -1 1 -1 1l-2 2c0 2 0 3 2 4l-1 5c-1 0 -2 -1 -3 -2c-1 0 -1 -1 -1 -2
c-1 -1 -1 -2 -1 -3s1 -2 1 -3c0 -2 1 -3 2 -4zM54 185c-1 -1 -1 -1 -1 -2v-3s1 -2 1 -2c0 -1 1 -2 1 -3c1 -1 1 -2 2 -2c1 -1 2 -1 3 -1c0 -1 1 0 3 0l-2 5c-1 -1 -2 -1 -3 0c0 0 -1 1 -1 2v1v1v1h1c1 1 1 1 1 0c1 0 1 0 1 -1c1 0 1 -1 1 -1c1 -1 1 -2 1 -2l2 -2
c0 -1 1 -1 1 -2h2h3s1 1 2 1c0 1 1 2 1 2v2c0 1 0 2 -1 3c0 1 0 2 -1 3c-1 0 -2 1 -3 2h1l1 1l-2 4l-1 -1c-1 0 -2 -1 -3 -1l-8 -3c-1 -1 -2 -1 -2 -2zM59 149l3 -5l22 10l-2 5l-10 -4l-4 9l10 4l-3 5l-22 -10l2 -5l9 4l4 -9zM89 134l-9 -9l3 -5l11 14h1c0 1 1 1 1 1
c1 0 1 -1 2 -1v-1c1 -1 1 -1 1 -2l4 2c-1 1 -1 1 -1 2l-1 1l-3 3c-1 0 -2 1 -3 0l-21 -3l2 -4l13 2v0zM92 109l-8 -5l3 -4l21 13l-3 4l-2 -1v0c1 1 1 2 1 3c0 2 -1 3 -1 4c-1 0 -2 1 -2 2c-1 0 -2 1 -3 1h-3c-2 -1 -3 -1 -4 -2c-2 -1 -3 -2 -4 -3c0 -1 -1 -2 -1 -3v-3
s0 -2 1 -2c0 -1 1 -2 2 -3c1 0 2 -1 3 -1v0zM112 81c1 0 3 0 4 1c1 0 2 1 3 2c1 0 2 1 2 2c1 1 1 2 2 3v3c0 2 -1 3 -2 4c0 1 -1 1 -2 2h-3v0l2 2l-3 4l-20 -15l3 -4l7 5v0v-3s1 -2 2 -3c0 -1 1 -2 2 -2c1 -1 2 -1 3 -1zM122 67c1 -1 2 -1 3 -1s3 0 4 1c1 0 2 1 3 1
c1 1 2 2 2 3c1 2 1 3 1 4c1 1 0 2 0 3s-1 2 -2 4c-1 1 -3 2 -4 3c-2 0 -4 0 -6 -1l3 -3h2l2 -2s1 -2 1 -3s0 -2 -1 -3l-9 10l-3 -3c0 -1 -1 -2 -1 -4v-3s1 -3 2 -4s2 -2 3 -2zM133 59l-2 -3l3 -3l13 12l-3 4l-6 -6c-1 0 -1 -1 -2 -1c0 0 -1 -1 -2 -1c0 0 -1 0 -2 1
c0 0 -1 0 -2 1v1h-1l-3 -3s1 0 1 -1l1 -1h2c0 -1 1 -1 2 -1l1 1v0zM146 42h3s3 0 4 1c1 0 2 1 3 2s1 2 2 3c0 1 1 2 1 4c0 1 -1 2 -1 3c-1 1 -1 2 -3 3c-1 1 -3 2 -4 3c-2 0 -4 -1 -6 -2l3 -3c1 1 2 1 2 1c1 0 2 -1 3 -2c1 0 1 -1 1 -3c1 -1 0 -2 -1 -3l-9 9l-3 -3
s-1 -2 -1 -4v-3c1 -2 2 -3 3 -4s2 -1 3 -2zM168 23l4 -3l7 17l-4 3l-10 -7v0l5 11l-4 4l-15 -11l3 -3l11 7v0l-6 -11l4 -3l10 8v0zM184 12c2 -1 3 -1 4 0c1 0 2 0 3 1l3 3s1 2 2 3v4c-1 1 -1 2 -2 3c0 1 -1 2 -2 3c-2 1 -3 1 -4 1c-1 1 -2 1 -3 1c-2 -1 -3 -1 -4 -2
s-2 -1 -2 -3c-1 -1 -2 -2 -2 -3v-4s0 -2 1 -3l3 -3c1 0 2 -1 3 -1zM195 -3l9 -6l13 22l-5 2l-4 -7l-5 3c-2 0 -3 1 -4 1h-3s-2 -1 -3 -2c-1 0 -1 -1 -2 -2c0 -1 -1 -2 -1 -3v-3s1 -1 2 -2c0 -1 1 -2 3 -3zM191 24v-2v-1c0 -1 -1 -2 -1 -2l-2 -2l-1 -1h-2h-2c-1 1 -1 1 -1 2
c-1 1 -1 1 -1 2c0 0 0 1 1 2c0 0 0 1 1 2l1 1c1 1 1 1 2 1c0 1 1 1 1 1c1 0 2 -1 2 -1c1 -1 2 -1 2 -2zM666 273c-8 12 -3 32 -5 49c-1 15 -1 32 9 42c7 -2 11 3 16 2c20 -2 24 -32 14 -52c-3 -6 -9 -9 -12 -14c-4 -9 -3 -18 -6 -23c-7 0 -9 -4 -16 -4zM607 304
c-1 -13 6 -25 2 -37c-24 -15 -26 9 -35 31c-5 14 -14 27 -12 40c4 26 29 21 51 8c4 -13 -6 -27 -6 -42zM657 115c16 1 19 -16 13 -36c-18 -9 -31 -29 -51 -43c-37 -25 -88 -32 -128 -4c-8 18 -11 41 -14 65c-27 -5 -10 -54 -22 -77c-10 -18 -39 -19 -51 0c4 38 19 97 22 146
c2 18 2 35 7 49c4 12 31 47 44 50c23 6 33 -8 41 -22c7 -45 -24 -52 -27 -87c10 -8 22 -4 31 -6c9 -3 22 -8 28 -17c17 -22 -4 -63 24 -72c18 4 44 11 59 28c6 7 13 26 24 26zM396 263c19 -13 2 -34 -10 -53c-25 -37 -43 -76 -67 -115c19 -9 58 1 69 -16c0 -8 0 -15 -2 -20
c-14 -9 -42 -4 -51 -19c-4 -29 24 -26 29 -46c-3 -9 -14 -13 -21 -12c-9 0 -33 14 -38 28c-6 15 1 29 0 44c-11 10 -30 -5 -45 3c-5 5 -5 18 -2 26c8 10 32 3 39 14c-38 2 -61 19 -79 41c-5 32 -20 73 8 91c29 2 38 -17 57 -25c10 -24 17 -53 28 -77c8 6 10 17 14 27
c4 8 11 14 14 24c7 17 7 40 15 57c1 3 13 21 18 24c7 4 15 4 24 4zM546 192v20h4v-16h10v-4h-14zM569 209v-17h-5v17h-6v3h17v-3h-6zM575 202h8v-4h-8v4zM593 209v-17h-4v17h-6v3h16v-3h-6zM619 212v-20h-5v9h-8v-9h-4v20h4v-7h8v7h5zM628 212c1 1 2 1 4 1c1 0 3 0 4 -1
c1 0 2 -1 3 -2s2 -2 2 -4c0 -1 1 -2 1 -4c0 -1 -1 -3 -1 -4s-1 -2 -2 -3s-2 -2 -3 -2c-1 -1 -3 -1 -4 -1c-2 0 -3 0 -4 1c-2 0 -3 1 -4 2c0 1 -1 2 -2 3v4v4c1 2 2 3 2 4c1 1 2 2 4 2zM636 207c0 1 -1 1 -2 2h-2h-3l-2 -2v-2c-1 -1 -1 -2 -1 -3s0 -1 1 -2v-2c1 -1 1 -2 2 -2
s2 -1 3 -1s2 1 2 1c1 0 2 1 2 2c0 0 1 1 1 2v2v3s-1 1 -1 2zM658 199v13h4v-20h-5l-8 14v0v-14h-4v20h4z" />
    <glyph glyph-name="calendar" unicode="calendar" horiz-adv-x="650" 
d="M0 499v-476c0 -26 22 -48 49 -48h552c27 0 49 22 49 48v476c0 26 -22 48 -49 48h-56v5c0 17 -5 36 -17 50c-13 13 -33 23 -62 23c-30 0 -50 -10 -62 -23c-13 -14 -18 -33 -18 -50v-5h-122v5c0 17 -5 36 -17 50c-13 13 -33 23 -63 23c-29 0 -49 -10 -61 -23
c-13 -14 -18 -33 -18 -50v-5h-56c-27 0 -49 -22 -49 -48zM66 40v104h117v-104h-117zM66 160v104h117v-104h-117zM66 280v105h117v-105h-117zM153 468v84c0 16 10 24 31 24c22 0 32 -8 32 -24v-84c0 -16 -10 -24 -32 -24c-21 0 -31 8 -31 24zM199 40v104h118v-104h-118z
M199 160v104h118v-104h-118zM199 280v105h118v-105h-118zM333 40v104h118v-104h-118zM333 160v104h118v-104h-118zM333 280v105h118v-105h-118zM467 40v104h117v-104h-117zM467 160v104h117v-104h-117zM467 280v105h117v-105h-117zM434 468v84c0 16 10 24 32 24
c20 0 31 -8 31 -24v-84c0 -16 -10 -24 -31 -24c-22 0 -32 8 -32 24z" />
    <glyph glyph-name="SQALE" unicode="SQALE" horiz-adv-x="1932" 
d="M178 599c-86 0 -168 -29 -168 -136c0 -55 30 -103 113 -163c85 -61 110 -85 110 -128c0 -60 -50 -76 -105 -76c-26 0 -64 2 -95 8c-23 4 -33 -16 -33 -30c0 -13 4 -21 11 -26c23 -14 88 -18 117 -18c110 0 183 46 183 149c0 63 -32 104 -117 163c-70 48 -105 86 -105 126
c0 53 34 66 103 66c38 0 59 -3 82 -5c26 -3 34 11 34 27c0 12 -4 21 -17 28c-18 10 -53 15 -113 15zM1138 153l20 -83c6 -27 18 -35 38 -35c38 0 47 13 47 32c0 7 -2 20 -9 45c-25 99 -80 313 -114 434c-12 41 -35 53 -81 53c-41 0 -67 -15 -77 -47
c-33 -108 -96 -343 -122 -440c-6 -20 -9 -38 -9 -45c0 -23 20 -32 45 -32c15 0 25 5 32 30l21 88c8 28 17 34 35 34h135c24 0 33 -8 39 -34zM1019 504c5 16 9 20 19 20c9 0 14 -4 19 -20c17 -55 55 -220 55 -235c0 -16 -8 -19 -30 -19h-92c-20 0 -29 3 -29 19s42 180 58 235
zM1400 126v437c0 26 -18 31 -40 31c-17 0 -39 -5 -39 -31v-463c0 -41 23 -62 74 -62h149c19 0 24 15 24 34c0 16 -5 33 -24 33h-121c-19 0 -23 4 -23 21zM1739 524h157c18 0 23 16 23 34c0 17 -5 33 -23 33h-186c-50 0 -74 -23 -74 -62v-429c0 -41 24 -62 74 -62h199
c18 0 23 15 23 34c0 16 -5 33 -23 33h-170c-20 0 -23 4 -23 21v144c0 18 3 22 23 22h145c19 0 24 13 24 32c0 16 -5 30 -24 30h-145c-20 0 -23 4 -23 21v114c0 28 3 35 23 35zM746 309c33 0 41 -14 40 -35c-1 -2 -1 -4 -1 -7c-8 -102 -34 -160 -76 -195c-7 -6 -6 -12 -3 -15
c18 -20 37 -41 43 -46c12 -14 14 -32 -2 -48c-19 -17 -36 -9 -47 2c-7 7 -37 42 -59 67c-3 3 -10 8 -20 8c-24 -3 -54 -3 -76 0c-80 11 -137 57 -157 171c-3 16 -5 30 -6 46c0 3 0 6 -1 10v7c-1 20 7 35 40 35c32 0 42 -15 42 -29c0 -3 0 -6 1 -10v-16c1 -7 2 -32 6 -50
c14 -83 50 -100 116 -100c86 0 115 23 120 167v9c0 14 8 29 40 29zM793 395c2 -22 -1 -43 -41 -43c-16 0 -93 23 -166 23c-80 0 -155 -23 -169 -23c-44 0 -42 28 -40 41c2 15 4 30 7 43c20 103 71 153 156 167c11 2 15 9 16 13c1 9 4 18 8 25c5 10 15 13 27 13
c10 0 21 -4 25 -13c4 -8 6 -17 8 -26c0 -4 2 -11 15 -13c94 -18 142 -85 154 -207z" />
    <glyph glyph-name="heteml" unicode="heteml" horiz-adv-x="1132" 
d="M1132 508c-24 4 -48 -6 -63 -24c21 -25 31 -57 34 -103c7 -84 5 -150 -71 -212c-27 -22 -56 -37 -87 -49c3 -20 3 -42 0 -63c-6 -30 -57 -27 -83 -28c-41 -2 -95 -1 -111 9c-9 6 -2 31 3 36c3 4 5 10 5 16c-27 0 -54 0 -82 1c-40 1 -81 -1 -120 -1c0 -11 -1 -23 -3 -34
c-4 -30 -48 -27 -70 -27c-35 -2 -81 0 -93 10c-9 7 -4 28 2 36c7 10 8 32 9 53c-23 17 -42 42 -56 77c-2 6 -5 13 -7 19c-28 -23 -60 -44 -94 -66c-75 -49 -150 -31 -198 5c-49 35 -55 120 -39 146c15 26 53 38 117 69c60 29 59 69 81 108c4 6 10 12 18 17
c-7 6 -13 14 -17 25c17 5 35 -3 45 -12c-1 12 9 30 28 41c5 -11 5 -24 1 -35c29 5 58 5 73 3c23 14 57 25 117 32c120 16 453 18 525 -18c23 -12 42 -24 57 -37c22 17 53 23 79 6zM201 392c7 0 13 6 13 13c0 6 -6 12 -13 12s-12 -6 -12 -12c0 -7 5 -13 12 -13z" />
    <glyph glyph-name="hatenabookmark" unicode="hatenabookmark" horiz-adv-x="650" 
d="M293 264c8 -6 12 -16 12 -31c0 -13 -4 -22 -14 -28c-9 -6 -25 -9 -48 -9h-33v77h35c23 0 39 -3 48 -9zM277 343c-8 -5 -24 -7 -48 -7h-19v70h21c23 0 39 -3 47 -8s13 -15 13 -28s-5 -22 -14 -27zM80 625h490c44 0 80 -36 80 -80v-490c0 -44 -36 -80 -80 -80h-490
c-44 0 -80 36 -80 80v490c0 44 36 80 80 80zM533 471h-85v-230h85v230zM384 176c8 14 12 30 12 49c0 26 -7 47 -21 63c-14 15 -34 24 -58 26c22 6 38 15 48 26c10 12 15 28 15 48c0 15 -3 29 -10 41s-17 22 -30 29c-11 6 -24 11 -40 13c-16 3 -43 4 -83 4h-96v-350h99
c40 0 69 1 86 4c18 3 32 7 44 14c15 8 26 19 34 33zM523 138c9 9 13 19 13 32c0 12 -4 23 -13 32c-9 8 -20 12 -33 12s-24 -4 -32 -13c-9 -8 -13 -19 -13 -31c0 -13 4 -23 13 -32s19 -13 32 -13s24 4 33 13z" />
    <glyph glyph-name="paperboy_co." unicode="paperboy" horiz-adv-x="576" 
d="M576 372c0 159 -129 288 -288 288s-288 -129 -288 -288c0 -118 73 -223 181 -266c13 -34 52 -129 52 -129c9 -22 31 -37 55 -37s46 15 55 37c0 0 39 95 53 129c107 43 180 148 180 266zM288 59c-18 45 -42 101 -42 101c-2 7 -7 12 -14 13c-88 25 -150 107 -150 199
c0 114 92 206 206 206s206 -92 206 -206c0 -92 -61 -174 -150 -199c-6 -1 -12 -6 -14 -13c0 0 -23 -56 -42 -101z" />
    <glyph glyph-name="checkbox" unicode="checkbox" horiz-adv-x="700" 
d="M517 174l74 106v-303h-591v590h476l-51 -74v0h-351v-442l443 -1v124zM583 623l-236 -341l-165 122l-83 -115l280 -214l321 461z" />
    <glyph glyph-name="checkboxempty" unicode="checkboxempty" horiz-adv-x="700" 
d="M0 -23v590h591v-590h-591zM517 493h-443v-443h443v443z" />
    <glyph glyph-name="aim" unicode="aim" horiz-adv-x="569" 
d="M447 603c25 -25 37 -54 37 -88c0 -29 -8 -55 -26 -77c-17 -22 -40 -37 -67 -44c33 -4 64 2 93 17l21 13l58 -133l-18 -10c-45 -25 -85 -40 -119 -45c57 -45 103 -104 136 -178l7 -16l-133 -79l-11 19c-22 50 -65 92 -128 123c-25 -34 -50 -61 -74 -78
c-38 -29 -86 -50 -145 -62l-19 -5l-59 161l45 7c12 4 24 8 37 15c38 18 65 46 83 83c2 3 3 12 4 24c7 89 38 152 91 190c-17 22 -25 47 -25 75c0 34 12 63 37 88c24 25 53 37 88 37c34 0 63 -12 87 -37zM508 309l-24 55c-46 -19 -90 -22 -132 -8l-9 3l-4 10
c-1 4 -2 10 -3 18v5c-17 4 -30 9 -43 18c-26 -15 -45 -35 -57 -60c-13 -25 -21 -60 -25 -104c-2 -20 -4 -33 -8 -39c-29 -61 -77 -101 -145 -119l28 -78c47 11 87 30 117 55c19 15 39 38 63 69l10 13c3 4 8 6 14 6c3 0 7 -1 9 -3c72 -31 124 -73 154 -128l62 36
c-30 58 -68 107 -116 145c-15 11 -30 22 -46 30l-21 11c-7 3 -10 9 -9 18c2 14 8 21 20 21l13 -2l62 -3c26 3 56 13 90 31zM360 594c-22 0 -41 -7 -57 -23s-24 -34 -24 -56s8 -41 24 -56c16 -16 35 -24 57 -24s40 8 56 24c16 15 24 34 24 56s-8 40 -24 56s-34 23 -56 23z
" />
    <glyph glyph-name="bing" unicode="bing" horiz-adv-x="680" 
d="M340 474c188 0 340 -101 340 -226s-152 -227 -340 -227c-187 0 -339 101 -340 226v0v1v0v0v331h98v-172c62 42 147 67 242 67zM340 77c131 0 238 76 238 171c0 94 -107 171 -238 171s-238 -77 -238 -171c0 -95 107 -171 238 -171z" />
    <glyph glyph-name="blogger" unicode="blogger" horiz-adv-x="650" 
d="M326 348h-73c-12 0 -23 11 -23 24c0 12 11 23 23 23h73c13 0 23 -11 23 -23c0 -13 -10 -24 -23 -24zM253 250h145c13 0 23 -10 23 -23s-10 -23 -23 -23h-145c-12 0 -23 10 -23 23s11 23 23 23zM98 625h454c54 0 98 -44 98 -98v-454c0 -54 -44 -98 -98 -98h-454
c-54 0 -98 44 -98 98v454c0 54 44 98 98 98zM526 222v96c0 18 -5 30 -27 30h-17c-18 0 -28 11 -28 24v11c0 57 -62 117 -116 117h-85c-71 0 -127 -56 -127 -127v-152c0 -67 58 -121 117 -121h161c65 0 122 55 122 122z" />
    <glyph glyph-name="cursor" unicode="cursor" horiz-adv-x="340" 
d="M298 342v-42h42v-42h-42h-43h-42v-43v-42h42v-43v-42h43v-43v-42h-43h-42v42v43h-43v42v43h-42v42h-43v-42h-42v-43h-43v43v42v43v42v42v43v42v43v42v43v42h43v-42h42v-43h43v-42h42v-43h43v-42h42v-43h43z" />
    <glyph glyph-name="digg" unicode="digg" horiz-adv-x="880" 
d="M132 244h-42v113h42v-113zM132 435h-132v-270h222v385h-90v-115zM263 472h90v78h-90v-78zM263 165h90v270h-90v-270zM527 244h-42v113h42v-113zM395 129v-79h222v385h-222v-270h132v-36h-132zM790 244h-42v113h42v-113zM658 129v-79h222v385h-222v-270h132v-36h-132z" />
    <glyph glyph-name="grab" unicode="grab" horiz-adv-x="680" 
d="M298 640h42h43v-42h-43h-42v42zM128 598h42h43v-43h-43h-42v43zM213 555h42v43h43v-43v-42v-43v-42v-43h-43v43v42h-42v43v42zM425 598h43h42v-43h-42h-43v-42v-43v-42v-43h-42v43v42v43v42v43h42zM85 470v43v42h43v-42v-43h-43zM553 555v-42v-43h42v-42h-42v-43v-42h-43
v42v43v42v43v42h43zM595 470v43h43v-43h-43zM638 428v42h42v-42v-43v-42v-43h-42v43v42v43zM170 385h-42v43v42h42v-42v-43zM43 385h42h43v-42h-43h-42v42zM0 258v42v43h43v-43v-42h-43zM128 300v43h42v42h43v-42v-43v-42h-43v42h-42zM595 215v43v42h43v-42v-43v-42h-43v42z
M85 258v-43h-42v43h42zM128 130h-43v43v42h43v-42v-43zM553 88v42v43h42v-43v-42h-42zM170 130v-42h-42v42h42zM213 88v-43h-43v43h43zM510 2v43v43h43v-43v-43v-42h-43v42zM255 -40h-42v42v43h42v-43v-42z" />
    <glyph glyph-name="myspace" unicode="myspace" horiz-adv-x="582" 
d="M436 407c-59 0 -106 47 -106 106s47 107 106 107s107 -48 107 -107s-48 -106 -107 -106zM242 425c-43 0 -78 35 -78 78s35 78 78 78c44 0 79 -35 79 -78s-35 -78 -79 -78zM582 242c0 -3 0 -7 -1 -10h1v-252h-291v132h-155v66h-136v151v0v6c0 48 39 87 87 87
c34 0 62 -18 77 -46c20 21 47 35 78 35c43 0 80 -25 97 -62c26 24 60 38 97 38c81 0 146 -65 146 -145zM87 434c-35 0 -64 28 -64 64c0 35 29 64 64 64c36 0 64 -29 64 -64c0 -36 -28 -64 -64 -64z" />
    <glyph glyph-name="pointer" unicode="pointer" horiz-adv-x="638" 
d="M298 640v-42h-43h-42v42h42h43zM298 470v43v42v43h42v-43v-42v-43h43h42h43h42v-42h-42v-43v-42h-43v42v43h-42h-43v-43v-42h-42v42v43v42zM128 385v-42h-43h-42v42h42h43zM553 343h-43v42v43h43h42v-43h-42v-42zM595 343v42h43v-42v-43v-42v-43v-42h-43v42v43v42v43z
M0 343h43v-43v-42h-43v42v43zM170 258v42h-42v43h42v42v43v42v43v42v43h43v-43v-42v-43v-42v-43v-42v-43v-42h-43zM43 215v43h42v-43h-42zM298 173v42v43h42v-43v-42v-43v-42h-42v42v43zM383 173v42v43h42v-43v-42v-43v-42h-42v42v43zM85 215h43v-42v-43h-43v43v42zM510 215
v-42v-43v-42h-42v42v43v42v43h42v-43zM553 88v42v43h42v-43v-42h-42zM128 88v42h42v-42h-42zM170 45v43h43v-43h-43zM510 2v43v43h43v-43v-43v-42h-43h-42v42h42zM425 2v43h43v-43h-43zM298 2h42h43h42v-42h-42h-43h-42h-43h-42v42v43h42v-43h43z" />
    <glyph glyph-name="sitemap" unicode="sitemap" horiz-adv-x="680" 
d="M604 316v-142h76v-181h-181v181h75v112h-219v-112h76v-181h-182v181h76v112h-219v-112h75v-181h-181v181h76v112v30h30h219v110h-98v181h226v-181h-98v-110h219h18h12z" />
    <glyph glyph-name="terminal" unicode="terminal" horiz-adv-x="680" 
d="M0 40v520h680v-520h-680zM59 383l121 47v27l-121 48v-30l86 -31l-86 -32v-29zM191 348h119v30h-119v-30z" />
    <glyph glyph-name="vimeo" unicode="vimeo" horiz-adv-x="650" 
d="M130 625h390c72 0 130 -58 130 -130v-390c0 -72 -58 -130 -130 -130h-390c-72 0 -130 58 -130 130v390c0 72 58 130 130 130zM538 409c4 20 4 41 -9 57c-17 21 -54 22 -79 18c-20 -3 -89 -33 -113 -106c42 3 64 -3 60 -49c-2 -20 -12 -41 -23 -61
c-12 -23 -36 -69 -66 -36c-28 30 -26 86 -32 124c-4 21 -8 48 -14 70c-6 18 -20 41 -37 46c-18 5 -40 -3 -53 -11c-42 -24 -74 -59 -110 -88v-3c7 -6 9 -18 20 -19c25 -4 48 23 65 -5c10 -17 13 -35 19 -54c9 -24 16 -51 23 -79c11 -47 26 -119 67 -136c21 -9 53 3 69 13
c43 25 77 62 105 100c66 89 103 190 108 219z" />
    <glyph glyph-name="wordpress" unicode="wordpress" horiz-adv-x="700" 
d="M50 300c0 44 9 85 26 122l143 -392c-100 48 -169 151 -169 270zM553 315c0 -26 -10 -55 -23 -97l-30 -100l-109 323c18 1 35 3 35 3c16 2 14 25 -2 24c0 0 -49 -3 -80 -3c-30 0 -79 3 -79 3c-16 1 -18 -23 -2 -24c0 0 15 -2 31 -3l47 -128l-66 -197l-109 325
c18 1 34 3 34 3c17 2 15 25 -2 24c0 0 -48 -3 -80 -3h-19c54 81 146 135 251 135c78 0 149 -30 203 -79c-2 1 -3 1 -4 1c-30 0 -51 -26 -51 -54c0 -24 15 -45 30 -70c11 -20 25 -46 25 -83zM265 12l90 262l93 -253c0 -2 1 -3 2 -4c-31 -11 -65 -17 -100 -17
c-29 0 -58 4 -85 12zM613 444c24 -43 37 -92 37 -144c0 -111 -60 -207 -149 -260l92 266c17 42 22 77 22 107c0 11 0 21 -2 31zM350 650c193 0 350 -157 350 -350s-157 -350 -350 -350s-350 157 -350 350s157 350 350 350zM350 -34c184 0 334 150 334 334s-150 334 -334 334
s-334 -150 -334 -334s150 -334 334 -334z" />
    <glyph glyph-name="yahoo" unicode="yahoo" horiz-adv-x="940" 
d="M741 444l22 33c-25 2 -112 2 -152 2c-48 0 -143 3 -161 0l7 -35c10 0 76 -10 96 -13c-4 -31 -132 -119 -147 -141c-26 39 -108 138 -160 215c20 5 97 7 113 11l3 27c-15 2 -136 3 -189 2c-81 -3 -164 2 -173 -2l1 -31c18 -4 93 -11 105 -15c41 -32 202 -232 208 -252
c3 -19 3 -39 3 -49v-23c0 -47 2 -56 -5 -65c-16 -16 -88 -12 -105 -13l-6 -34c32 -1 134 3 166 3c63 0 173 0 188 -1l2 35c-16 3 -102 1 -114 3c-3 18 -9 50 -9 70l2 27c0 18 1 36 4 48c12 35 194 175 213 180c19 4 74 17 88 18zM708 188l53 -24c9 13 115 186 144 223l35 46
c-13 5 -17 9 -54 26c-62 29 -60 27 -74 35l-13 -45c-7 -23 -76 -235 -91 -261zM656 78l29 -12l30 -13l31 58l-33 13l-35 18z" />
    <glyph glyph-name="dropbox" unicode="dropbox" horiz-adv-x="682" 
d="M682 503l-130 -112l130 -113l-217 -135l-124 111l-124 -111l-217 135l130 113l-130 112l216 137l125 -112l125 112zM140 391l201 -127l201 127l-201 127zM341 210l122 -108l97 61v-65l-219 -138l-219 138v65l97 -61z" />
    <glyph glyph-name="server" unicode="server" horiz-adv-x="580" 
d="M36 494h508c19 0 36 -17 36 -36v-84c0 -20 -17 -36 -36 -36h-508c-20 0 -36 16 -36 36v84c0 19 16 36 36 36zM536 408v16c0 6 -6 12 -12 12h-64c-7 0 -12 -6 -12 -12v-16c0 -7 5 -12 12 -12h64c6 0 12 5 12 12zM36 310h508c19 0 36 -16 36 -36v-84c0 -20 -17 -36 -36 -36
h-508c-20 0 -36 16 -36 36v84c0 20 16 36 36 36zM536 224v16c0 6 -6 12 -12 12h-64c-7 0 -12 -6 -12 -12v-16c0 -7 5 -12 12 -12h64c6 0 12 5 12 12zM36 126h508c19 0 36 -16 36 -36v-84c0 -20 -17 -36 -36 -36h-508c-20 0 -36 16 -36 36v84c0 20 16 36 36 36zM536 40v16
c0 7 -6 12 -12 12h-64c-7 0 -12 -5 -12 -12v-16c0 -7 5 -12 12 -12h64c6 0 12 5 12 12zM544 521h-508c-6 0 -12 -1 -17 -3l61 83c12 16 38 29 58 29h304c19 0 45 -13 57 -29l62 -83c-6 2 -12 3 -17 3z" />
    <glyph glyph-name="bag" unicode="bag" horiz-adv-x="680" 
d="M680 433v-120c-95 -35 -213 -55 -340 -55s-245 20 -340 55v120c0 22 18 40 40 40h165v30c0 46 38 85 85 85h100c47 0 85 -39 85 -85v-30h165c22 0 40 -18 40 -40zM255 503v-30h170v30c0 19 -16 35 -35 35h-100c-19 0 -35 -16 -35 -35zM290 320v-20c0 -6 4 -10 10 -10h80
c6 0 10 4 10 10v20c0 6 -4 10 -10 10h-80c-6 0 -10 -4 -10 -10zM0 52v218c96 -33 213 -52 340 -52s244 19 340 52v-218c0 -22 -18 -40 -40 -40h-600c-22 0 -40 18 -40 40zM390 155v20c0 6 -4 10 -10 10h-80c-6 0 -10 -4 -10 -10v-20c0 -6 4 -10 10 -10h80c6 0 10 4 10 10z
" />
    <glyph glyph-name="college" unicode="college" horiz-adv-x="780" 
d="M390 568l390 -156l-390 -155l-291 116c-18 -15 -31 -39 -33 -66h7c8 0 14 -6 14 -14v-37c0 -8 -6 -14 -14 -14h-5l19 -194c1 -8 -5 -15 -13 -15h-35c-8 0 -14 7 -14 15l20 194h-5c-8 0 -15 6 -15 14v37c0 8 7 14 15 14h11c2 29 15 54 33 72l-84 33zM379 229l11 -4l11 4
l214 86l16 -177c1 -12 -7 -17 -18 -12l-84 43c-11 6 -29 5 -39 -1l-81 -46c-10 -6 -28 -6 -38 0l-81 46c-10 6 -28 7 -38 1l-85 -43c-11 -6 -19 0 -18 12l16 177z" />
    <glyph glyph-name="female" unicode="female" horiz-adv-x="339" 
d="M245 584c0 42 -34 76 -76 76c-41 0 -75 -34 -75 -76s34 -76 75 -76c42 0 76 34 76 76zM287 460l50 -157c5 -13 -3 -27 -16 -31c-13 -5 -27 3 -32 16l-27 83c-4 13 -16 24 -27 24c-10 0 -15 -11 -11 -24l58 -179c4 -13 -4 -24 -18 -24h-25v-203c0 -14 -12 -25 -25 -25
c-14 0 -26 11 -26 25v203h-38v-203c0 -14 -11 -25 -25 -25s-25 11 -25 25v203h-25c-14 0 -22 11 -18 24l58 179c4 13 -1 24 -12 24c-10 0 -22 -11 -27 -24l-27 -83c-4 -13 -18 -21 -31 -16c-14 4 -21 18 -17 31l51 157c4 13 19 24 33 24h169c14 0 28 -11 33 -24z" />
    <glyph glyph-name="line" unicode="line" horiz-adv-x="684" 
d="M341 629c190 0 343 -124 343 -278c0 -75 -37 -141 -95 -193c-94 -93 -256 -187 -273 -180c-28 11 21 71 1 97c-3 4 -14 3 -34 6c-165 22 -283 131 -283 271c0 154 152 277 341 277zM146 259h58c10 0 16 8 16 18c0 7 -5 16 -18 16h-47c-4 0 -4 4 -4 18v101
c0 9 -6 18 -17 18c-10 0 -17 -8 -17 -18v-122c0 -27 13 -31 29 -31zM277 273v139c0 9 -7 18 -18 18c-9 0 -17 -8 -17 -18v-139c0 -9 7 -16 18 -16c9 0 17 7 17 16zM441 292v122c0 9 -7 16 -18 16c-8 0 -17 -5 -17 -16v-88l-58 81c-8 14 -18 23 -30 23c-15 0 -16 -12 -16 -29
v-128c0 -9 7 -16 17 -16c9 0 17 6 17 16v91l58 -81c13 -17 16 -26 32 -26c11 0 15 10 15 35zM553 361h-51v29c0 3 1 7 6 7h45c11 0 18 6 18 17c0 13 -10 17 -19 17h-58c-18 0 -27 -12 -27 -28v-113c0 -20 8 -31 27 -31h59c13 0 18 8 18 18c0 13 -10 17 -18 17h-44
c-4 0 -7 3 -7 6v28h53c13 0 15 10 15 17c0 10 -8 16 -17 16z" />
    <glyph glyph-name="male" unicode="male" horiz-adv-x="303" 
d="M224 584c0 42 -34 76 -76 76c-41 0 -75 -34 -75 -76s34 -76 75 -76c42 0 76 34 76 76zM25 483h253c14 0 25 -11 25 -25v-164c0 -14 -11 -26 -25 -26v0c-14 0 -25 12 -25 26v75c0 14 -7 26 -16 26s-16 -12 -16 -26v-404c0 -14 -11 -25 -25 -25v0c-14 0 -25 11 -25 25v177
c0 14 -9 25 -19 25c-11 0 -19 -11 -19 -25v-177c0 -14 -12 -25 -26 -25v0c-14 0 -25 11 -25 25v404c0 14 -7 26 -16 26c-8 0 -15 -12 -15 -26v-75c0 -14 -12 -26 -26 -26v0c-14 0 -25 12 -25 26v164c0 14 11 25 25 25z" />
    <glyph glyph-name="spa" unicode="spa" horiz-adv-x="640" 
d="M528 305l-14 -19c46 -16 77 -46 77 -90c0 -81 -117 -142 -271 -142s-271 61 -271 142c0 44 31 74 77 90l-14 19c-67 -16 -112 -62 -112 -126c0 -103 134 -187 320 -187c184 0 320 83 320 187c0 64 -45 110 -112 126zM148 162l20 -13c57 36 71 77 71 128
c0 26 -11 63 -31 99c-21 36 -34 73 -34 101c0 29 13 60 47 88l-20 13c-58 -37 -71 -82 -71 -127c0 -27 11 -64 32 -99c20 -36 34 -73 34 -101s-13 -61 -48 -89zM275 131l21 -11c58 39 76 88 76 145c0 30 -12 71 -33 112s-33 81 -33 114c0 34 16 73 52 105l-22 12
c-61 -42 -76 -94 -76 -146c0 -30 12 -72 33 -112c21 -41 34 -80 34 -114s-17 -72 -52 -105zM414 162l20 -13c57 36 70 77 70 128c0 26 -10 63 -31 99c-20 36 -34 73 -34 101c0 29 14 61 48 89l-20 12c-59 -37 -71 -82 -71 -127c0 -27 10 -64 31 -99c21 -36 34 -73 34 -101
s-13 -61 -47 -89z" />
    <glyph glyph-name="umbrella" unicode="umbrella" horiz-adv-x="628" 
d="M288 65v242c10 3 20 4 26 4s16 -1 26 -4v-242c0 -42 -28 -105 -105 -105c-76 0 -104 63 -104 105c0 14 11 26 26 26c14 0 26 -12 26 -26c0 -13 5 -53 52 -53c50 0 53 44 53 53zM340 614v-28c161 -13 288 -148 288 -312h-4c-12 45 -52 69 -101 69s-89 -24 -101 -69h-7
c-10 36 -38 55 -75 65v0c-8 2 -17 3 -26 3s-18 -1 -26 -3v0c-37 -10 -66 -29 -75 -65h-8c-11 45 -52 69 -100 69c-49 0 -90 -24 -101 -69h-4c0 164 127 299 288 312v28c0 14 11 26 26 26c14 0 26 -12 26 -26z" />
    <glyph glyph-name="ustream" unicode="ustream" horiz-adv-x="650" 
d="M373 120c-71 0 -113 55 -113 163v342h229v-342c0 -111 -41 -163 -116 -163zM630 292v323c12 -9 20 -24 20 -40v-550c0 -28 -22 -50 -50 -50h-550c-28 0 -50 22 -50 50v550c0 28 22 50 50 50h68v-331c0 -199 92 -288 251 -288c163 0 261 92 261 286z" />
    <glyph glyph-name="slideshare" unicode="slideshare" horiz-adv-x="668" 
d="M634 603v-264c3 2 5 4 8 6c20 14 34 -5 21 -24c-24 -29 -70 -66 -141 -95c26 -88 12 -151 -17 -190c-17 -24 -40 -38 -63 -43v-1c-50 -13 -100 11 -98 69c0 1 -1 71 -1 124c-5 1 -11 3 -18 5v-129c4 -130 -253 -90 -179 165c-70 29 -116 66 -141 95c-12 19 1 38 22 24
c2 -2 5 -4 8 -6v264c0 36 27 66 61 66h477c34 0 61 -30 61 -66zM601 320v253c0 43 -14 61 -54 61h-422c-42 0 -54 -15 -54 -61v-256c90 -47 167 -38 209 -37c18 1 30 -3 36 -10c2 -1 3 -2 4 -4c8 -7 16 -13 23 -19c2 21 14 35 45 33c43 -1 122 -10 213 40zM244 465
c45 0 81 -35 81 -77s-36 -77 -81 -77c-46 0 -82 35 -82 77s36 77 82 77zM434 465c45 0 82 -35 82 -77s-37 -77 -82 -77s-82 35 -82 77s37 77 82 77z" />
    <glyph glyph-name="soundcloud" unicode="soundcloud" horiz-adv-x="1085" 
d="M900 321c-8 69 -36 116 -77 153c-38 35 -93 65 -168 61c-17 -1 -33 -3 -49 -7c-10 -3 -33 -9 -37 -17c-3 -5 -2 -16 -2 -26v-364c0 -16 -3 -45 5 -52c5 -7 18 -5 32 -5h335c42 0 70 9 94 28c23 17 40 42 48 73c9 36 1 73 -14 99c-29 49 -92 84 -167 57zM539 503
c-16 -1 -14 -16 -14 -34c-2 -29 -1 -59 -2 -85c-2 -54 0 -114 -3 -169c-1 -38 2 -71 4 -110c1 -19 -1 -41 17 -40c16 1 14 17 15 34c2 31 5 63 5 92c1 50 -3 103 -3 153c0 37 -1 77 -3 115c-1 22 3 46 -16 44zM492 477c-14 -2 -11 -16 -11 -33c-1 -26 -2 -56 -2 -79
c0 -35 0 -67 -2 -105c-2 -54 0 -103 2 -156c1 -19 0 -39 14 -40c19 -1 16 22 16 41c3 52 6 103 4 156c-3 51 -1 106 -4 159c0 10 2 44 -2 51c-4 6 -12 7 -15 6zM356 446c-11 -2 -9 -18 -9 -33c0 -55 -3 -105 -5 -159c-1 -23 -2 -45 -2 -64c1 -31 5 -69 7 -101
c0 -11 0 -25 11 -25c14 0 12 23 13 37c1 17 2 33 3 48c5 64 -1 128 -2 195c0 26 -2 47 -2 74c0 16 -1 30 -14 28zM400 440c-11 -3 -9 -20 -9 -35c0 -33 -2 -60 -3 -93c-1 -40 -3 -86 -3 -122c0 -30 4 -70 6 -102c1 -13 1 -23 12 -23c13 -1 12 13 13 25c3 34 6 67 6 99
c1 19 0 41 -1 62c-2 52 -3 102 -5 156c-1 19 2 37 -16 33zM312 437c-11 -2 -9 -14 -9 -27c-1 -24 -2 -51 -2 -72c-2 -62 -7 -128 -2 -190c0 -13 2 -28 3 -45c1 -15 -2 -39 12 -38c10 0 10 13 11 24c2 34 6 67 7 99c1 20 -1 41 -2 62c-2 50 -3 102 -5 154c-1 15 1 35 -13 33z
M445 432c-11 -3 -9 -15 -10 -29c-1 -87 -7 -174 -2 -259c0 -13 1 -29 2 -46c1 -16 -1 -35 15 -34c9 1 12 10 13 23c1 35 5 71 5 103c0 38 -2 80 -3 121c-1 28 -2 62 -3 91c-1 11 1 23 -4 27c-3 4 -11 5 -13 3zM267 417c-8 -1 -7 -9 -7 -20c-2 -59 -4 -104 -6 -162
c-1 -15 -2 -31 -2 -45c1 -32 4 -57 6 -89c1 -13 -1 -37 12 -37c10 1 9 16 9 26c3 34 8 67 8 100c0 17 -1 37 -2 56c-2 48 -4 95 -6 143c0 12 1 31 -12 28zM224 376c-10 -2 -8 -27 -9 -40c-2 -45 -3 -75 -5 -120c-2 -42 2 -79 5 -119c1 -13 0 -32 10 -32c10 -1 9 16 10 26
c1 13 2 23 2 33c2 23 6 45 6 65c0 12 -2 30 -3 46c-2 41 -4 77 -6 116c-1 13 1 26 -10 25zM143 312c-2 1 -7 3 -8 0c-5 -2 -4 -20 -5 -30c-1 -11 -2 -22 -3 -31c-1 -21 -5 -41 -5 -63c0 -20 3 -42 5 -63c1 -9 2 -20 3 -31c1 -8 0 -27 9 -26c7 0 7 17 7 26c1 12 2 22 3 32
c2 20 6 43 7 62c0 11 -2 21 -3 32c-2 21 -4 42 -6 62c-1 11 -1 21 -4 30zM93 309c-5 -2 -5 -22 -5 -30c-1 -11 -2 -21 -3 -31c-2 -20 -6 -39 -5 -61c0 -28 5 -60 8 -90c1 -7 -1 -26 8 -25c6 1 6 17 7 26c1 12 2 22 3 31c2 20 6 39 6 60c0 22 -4 40 -6 61c-1 10 -2 19 -3 31
c-1 9 0 32 -10 28zM180 306c-8 -2 -7 -17 -8 -27c0 -11 -1 -22 -2 -31c-1 -21 -5 -38 -5 -60c0 -20 3 -41 5 -63c1 -10 2 -20 2 -33c1 -10 1 -25 8 -26c10 -1 9 13 11 25c2 25 3 43 5 65c1 11 3 21 3 33c0 19 -4 38 -6 57c-1 9 -1 19 -2 30s0 32 -11 30zM49 289
c-3 -16 -4 -33 -6 -50s-6 -34 -6 -51c1 -16 4 -35 6 -52c1 -7 2 -15 3 -25c1 -6 1 -22 7 -22c3 0 4 2 5 9c3 23 5 43 8 64c1 9 3 17 3 26s-2 18 -3 27c-3 18 -4 33 -7 52c-1 8 0 29 -10 22zM15 252c-2 1 -6 2 -6 -1c-2 -8 -4 -20 -5 -31c-1 -10 -4 -22 -4 -32
c0 -9 3 -22 5 -33c0 -4 1 -10 2 -17c1 -5 1 -13 6 -13c6 1 7 23 8 30c2 11 5 24 5 33c0 11 -3 22 -5 33s-2 22 -6 31z" />
    <glyph glyph-name="ubuntu" unicode="ubuntu" horiz-adv-x="702" 
d="M527 519c-34 19 -45 62 -26 96c13 23 37 35 61 35c12 0 24 -3 35 -9c34 -20 45 -63 26 -96c-13 -23 -37 -35 -61 -35c-12 0 -24 3 -35 9zM702 320h-116c-4 54 -31 102 -72 133c-7 5 -14 10 -22 15c-26 14 -56 22 -88 22c-33 0 -63 -8 -90 -23l-64 97c45 27 97 42 154 42
c22 0 44 -2 66 -7c-8 -39 9 -80 45 -101c14 -8 30 -12 47 -12c23 0 45 8 62 23c46 -50 75 -116 78 -189zM228 549l64 -97c-40 -31 -67 -78 -70 -132c-1 -4 -1 -8 -1 -13c0 -4 0 -9 1 -13c4 -57 34 -106 78 -137l-61 -99c-58 38 -102 96 -122 164c28 16 48 47 48 82
s-20 67 -50 83c19 66 59 123 113 162zM70 374c39 0 71 -31 71 -70s-32 -71 -71 -71s-70 32 -70 71s31 70 70 70zM262 44l61 100c24 -12 52 -19 81 -19c32 0 62 8 89 23c8 4 15 9 22 15c40 30 67 77 71 131h116c-3 -76 -35 -145 -85 -196c-15 11 -34 17 -53 17
c-17 0 -33 -4 -47 -12c-32 -19 -49 -53 -47 -87c-22 -5 -44 -8 -66 -8c-52 0 -100 13 -142 36zM564 91c24 0 48 -12 61 -35c19 -34 7 -78 -26 -97c-11 -6 -23 -9 -35 -9c-25 0 -48 12 -61 35c-20 34 -8 77 26 97c11 6 23 9 35 9z" />
    <glyph glyph-name="vk" unicode="vk" horiz-adv-x="875" 
d="M530 315c-16 6 -16 29 -17 45c-4 57 16 144 -8 181c-17 22 -99 20 -149 17c-14 -2 -31 -5 -43 -11s-24 -16 -24 -25c0 -13 30 -11 41 -28c12 -18 12 -57 12 -89c0 -37 -6 -86 -21 -88c-23 -1 -36 22 -48 39c-24 33 -48 74 -66 114c-9 21 -14 44 -27 53
c-20 14 -56 15 -91 14c-32 -1 -78 3 -87 -16c-7 -21 8 -41 16 -58c41 -89 85 -167 139 -241c50 -69 97 -124 189 -153c26 -8 140 -31 163 0c8 12 6 39 10 59s9 40 28 41c16 1 25 -13 35 -23c11 -11 20 -20 28 -30c19 -19 39 -45 63 -55c33 -14 84 -10 132 -8
c39 1 67 9 70 32c2 18 -18 44 -30 59c-30 37 -44 48 -78 82c-15 15 -34 31 -34 49c-1 11 8 21 16 32c35 52 70 89 102 143c9 16 30 53 22 71c-9 20 -59 14 -90 14c-40 0 -92 3 -102 -5c-19 -13 -27 -34 -36 -54c-20 -46 -47 -93 -75 -128c-10 -12 -29 -37 -40 -33z" />
    <glyph glyph-name="yelp" unicode="yelp" horiz-adv-x="645" 
d="M386 459c-1 24 -5 47 -7 70c-2 25 1 52 -7 73c-11 30 -46 40 -74 53c-27 13 -40 23 -77 20c-22 -2 -53 -11 -80 -20c-38 -13 -77 -27 -88 -56c-12 -30 4 -51 16 -70c37 -57 75 -115 111 -170c7 -9 17 -16 16 -28c-22 8 -40 14 -60 21c-19 7 -38 20 -60 21
c-26 2 -50 -13 -61 -32c-16 -30 -20 -116 -7 -154c18 -49 83 -49 123 -78c-10 -14 -24 -25 -27 -41c-8 -42 25 -68 50 -80c24 -11 60 -23 94 -35s71 -31 103 -27c42 6 51 51 49 101c37 -10 67 -44 109 -49c45 -6 72 33 90 55c19 22 41 51 45 80c5 44 -19 59 -45 71
c-21 9 -42 18 -62 26c-10 4 -23 7 -28 16c61 19 137 20 127 92c-2 22 -19 51 -35 73c-26 37 -55 58 -96 76c-25 12 -54 30 -85 18c-14 -5 -19 -20 -34 -26zM149 620c29 10 51 18 85 19c9 1 27 1 33 -10c5 -8 5 -27 6 -39c6 -68 10 -126 16 -201c2 -31 -1 -56 -23 -58
c-26 -2 -42 33 -55 53c-38 57 -68 102 -107 160c-9 13 -19 23 -18 35c2 23 40 33 63 41zM502 404c16 -24 29 -42 30 -73c-15 -18 -50 -23 -84 -32c-13 -4 -30 -7 -46 -11c-25 -6 -61 -20 -67 13c-6 26 28 55 44 78c20 28 30 51 52 71c24 22 62 -35 71 -46zM152 207
c-34 -12 -55 -21 -92 -25c-27 10 -29 118 -11 145c4 7 17 13 23 11c36 -11 82 -31 123 -46c21 -9 54 -15 39 -50c-7 -15 -65 -30 -82 -35zM344 199c1 13 11 23 25 25c0 0 1 3 3 2c34 -9 87 -26 128 -39c13 -4 32 -7 37 -18c12 -27 -20 -59 -32 -74c-10 -14 -33 -51 -60 -48
c-21 2 -46 54 -57 71c-8 13 -18 29 -25 39c-8 12 -21 26 -19 42zM220 160c9 11 20 29 35 32c10 3 27 0 34 -10c9 -16 4 -66 5 -91c1 -28 4 -78 -5 -88c-16 -19 -61 -1 -84 7c-24 8 -61 18 -64 40c-2 17 11 26 24 41c19 25 35 47 55 69z" />
    <glyph glyph-name=".notdef" unicode="&#xff00;" horiz-adv-x="476" 
d="M102 0h272v682h-272v-682zM136 34v614h204v-614h-204z" />
    <glyph glyph-name="A" unicode="A" horiz-adv-x="517" 
d="M532 0h-81l-89 242h-207l-88 -242h-82l273 762zM258 526l-77 -214h155z" />
    <glyph glyph-name="B" unicode="B" horiz-adv-x="551" 
d="M61 735h175c58 0 109 -27 141 -71c23 -30 35 -66 35 -105s-12 -75 -35 -104c-3 -5 -7 -10 -10 -15c34 -12 63 -31 88 -58c38 -40 61 -96 61 -155c0 -60 -23 -114 -61 -155c-41 -44 -100 -72 -166 -72h-228v735zM133 455h108c55 2 99 48 99 104s-44 102 -99 105h-108v-209
zM133 382v-310h158c85 1 153 70 153 155s-68 155 -153 155h-158z" />
    <glyph glyph-name="C" unicode="C" horiz-adv-x="720" 
d="M721 579l-63 -44c-58 79 -153 131 -261 131s-204 -52 -262 -131c-38 -51 -60 -115 -60 -184s22 -132 60 -183c58 -79 154 -130 262 -130s203 51 261 130l60 -41c-58 -80 -148 -139 -254 -157c-155 -28 -305 37 -391 155c-33 45 -57 99 -67 158c-19 106 10 211 70 294
c59 79 149 137 254 155c156 28 306 -36 391 -153z" />
    <glyph glyph-name="D" unicode="D" horiz-adv-x="688" 
d="M72 735h254c82 0 157 -26 218 -71c90 -67 149 -174 149 -296c0 -121 -59 -228 -149 -296c-61 -45 -136 -72 -218 -72h-1h-253v735zM143 72h189c161 4 290 135 290 296c0 162 -129 293 -290 296h-189v-592z" />
    <glyph glyph-name="E" unicode="E" horiz-adv-x="567" 
d="M516 735v-71h-383v-209h383v-72h-383v-311h383v-72h-455v735h455z" />
    <glyph glyph-name="F" unicode="F" horiz-adv-x="577" 
d="M506 735v-71h-383v-209h383v-72h-383v-383h-72v735h455z" />
    <glyph glyph-name="G" unicode="G" horiz-adv-x="803" 
d="M397 264v73h397c-1 -25 -5 -49 -11 -73c-36 -145 -157 -265 -319 -294c-155 -28 -305 37 -391 155c-33 45 -57 99 -67 158c-38 210 108 411 324 449c156 28 306 -36 391 -153l-63 -44c-58 79 -153 131 -261 131c-178 0 -322 -142 -322 -315c0 -69 22 -131 60 -183
c58 -79 154 -130 262 -130c147 0 272 95 311 226h-311z" />
    <glyph glyph-name="H" unicode="H" horiz-adv-x="649" 
d="M516 455v280h72v-735h-72v383h-383v-383h-72v735h72v-280h383z" />
    <glyph glyph-name="I" unicode="I" horiz-adv-x="235" 
d="M82 0v735h72v-735h-72z" />
    <glyph glyph-name="J" unicode="J" horiz-adv-x="490" 
d="M337 206v529h72v-527c0 -66 -28 -125 -72 -166c-41 -38 -96 -61 -156 -61c-62 0 -120 25 -161 66l52 51c28 -29 66 -46 109 -46c85 0 155 69 156 154z" />
    <glyph glyph-name="K" unicode="K" horiz-adv-x="604" 
d="M539 735l-350 -331l374 -404h-94l-326 351v-351h-71v735h71v-280l297 280h99z" />
    <glyph glyph-name="L" unicode="L" horiz-adv-x="567" 
d="M143 735v-663h383v-72h-454v735h71z" />
    <glyph glyph-name="M" unicode="M" horiz-adv-x="721" 
d="M51 753l310 -443l310 443v-753h-73v524l-237 -339l-237 339v-524h-73v753z" />
    <glyph glyph-name="N" unicode="N" horiz-adv-x="628" 
d="M506 185v551h72v-756l-455 570v-550h-72v756z" />
    <glyph glyph-name="O" unicode="O" horiz-adv-x="794" 
d="M788 431c37 -211 -107 -412 -324 -450c-216 -38 -421 101 -458 312c-38 210 108 411 324 449s421 -101 458 -311zM397 48c178 0 323 140 323 313s-145 315 -323 315s-322 -142 -322 -315s144 -313 322 -313z" />
    <glyph glyph-name="P" unicode="P" horiz-adv-x="546" 
d="M51 735h279c58 0 109 -27 141 -71c22 -30 35 -66 35 -105s-13 -75 -35 -104c-32 -44 -83 -72 -141 -72h-207v-383h-72v735zM123 455h210c56 1 101 47 101 104c0 56 -45 103 -101 105h-210v-209z" />
    <glyph glyph-name="Q" unicode="Q" horiz-adv-x="794" 
d="M676 -62l-76 95c-41 -25 -86 -42 -136 -50c-216 -38 -421 101 -458 312c-38 210 108 411 324 449s421 -101 458 -312c25 -137 -30 -271 -130 -357l110 -137h-92zM489 288l124 -157c66 57 107 141 107 233c0 173 -145 313 -323 313s-322 -140 -322 -313s144 -315 322 -315
c57 0 111 16 158 40l-158 199h92z" />
    <glyph glyph-name="R" unicode="R" horiz-adv-x="542" 
d="M350 383h-104l297 -383h-91l-297 383h-12v-383h-71v735h278c58 0 110 -27 142 -71c22 -30 34 -66 34 -105s-12 -75 -34 -104c-32 -44 -84 -72 -142 -72zM353 664h-210v-209h210c56 1 102 47 102 104c0 56 -46 103 -102 105z" />
    <glyph glyph-name="S" unicode="S" horiz-adv-x="532" 
d="M114 172l-63 -37c31 -56 93 -155 222 -155c154 0 211 130 208 197c-1 37 -11 74 -35 111s-68 79 -131 126c-54 40 -86 63 -95 73c-17 17 -46 50 -46 96c0 31 21 93 100 93c69 0 108 -53 136 -90l59 46c-34 46 -90 120 -193 120c-130 0 -179 -102 -179 -172
c0 -40 13 -78 39 -113c15 -20 54 -54 115 -100s103 -85 126 -118c17 -24 24 -48 25 -73c1 -43 -36 -125 -136 -125c-57 0 -108 40 -152 121z" />
    <glyph glyph-name="T" unicode="T" horiz-adv-x="475" 
d="M10 735h455v-71h-192v-664h-71v664h-192v71z" />
    <glyph glyph-name="U" unicode="U" horiz-adv-x="649" 
d="M588 735v-491c0 -71 -28 -134 -72 -181c-48 -51 -115 -82 -191 -82s-144 31 -192 82c-44 47 -72 111 -72 181v491h72v-492c1 -105 87 -191 192 -191s190 86 191 190v493h72z" />
    <glyph glyph-name="V" unicode="V" horiz-adv-x="609" 
d="M579 735l-275 -762l-273 762h82l191 -526l193 526h82z" />
    <glyph glyph-name="W" unicode="W" horiz-adv-x="949" 
d="M696 209l141 526h82l-212 -762l-232 580l-232 -580l-212 762h82l140 -526l222 550z" />
    <glyph glyph-name="X" unicode="X" horiz-adv-x="609" 
d="M566 735l-219 -357l232 -378h-84l-190 308l-189 -308h-85l231 378l-219 357h84l178 -289l177 289h84z" />
    <glyph glyph-name="Y" unicode="Y" horiz-adv-x="585" 
d="M293 446l177 289h85l-226 -368v-367h-72v368l-226 367h85z" />
    <glyph glyph-name="Z" unicode="Z" horiz-adv-x="553" 
d="M54 735h469l-379 -663h365v-72h-489l379 664h-345v71z" />
    <glyph glyph-name="a" unicode="a" horiz-adv-x="644" 
d="M511 432v94h72v-526h-72v74c-50 -55 -124 -91 -206 -91c-152 0 -285 120 -285 270s133 270 285 270c82 0 156 -36 206 -91zM511 247v12c-4 110 -95 198 -207 198c-115 0 -215 -91 -215 -204s100 -204 215 -204c112 0 203 88 207 198z" />
    <glyph glyph-name="b" unicode="b" horiz-adv-x="685" 
d="M133 754v-324c53 58 132 96 216 96c152 0 275 -120 275 -270s-123 -270 -275 -270c-84 0 -163 38 -216 96v-82h-72v754h72zM348 52c115 0 207 91 207 204s-92 204 -207 204s-215 -91 -215 -204s100 -204 215 -204z" />
    <glyph glyph-name="c" unicode="c" horiz-adv-x="593" 
d="M548 412l-56 -39c-38 51 -98 84 -167 84c-70 0 -134 -34 -174 -85c-26 -34 -41 -75 -41 -119s15 -85 41 -119c40 -51 104 -85 174 -85c69 0 129 33 167 84l56 -39c-50 -68 -131 -111 -222 -111c-92 0 -178 44 -230 112c-35 45 -55 100 -55 158s20 113 55 158
c52 68 138 112 230 112c91 0 172 -43 222 -111z" />
    <glyph glyph-name="d" unicode="d" horiz-adv-x="654" 
d="M521 430v324h72v-754h-72v82c-53 -58 -132 -96 -216 -96c-152 0 -274 120 -274 270s122 270 274 270c84 0 163 -38 216 -96zM306 52c115 0 215 91 215 204s-100 204 -215 204c-114 0 -207 -91 -207 -204s93 -204 207 -204z" />
    <glyph glyph-name="e" unicode="e" horiz-adv-x="641" 
d="M600 255h-490v-2c0 -113 100 -204 215 -204c82 0 152 47 186 115l61 -29c-44 -90 -137 -152 -246 -152c-152 0 -285 120 -285 270c0 42 11 82 29 117c47 91 147 153 256 153c130 0 238 -89 267 -208c4 -19 7 -40 7 -60zM121 315h400c-27 82 -104 142 -196 142
c-82 0 -158 -47 -194 -116c-4 -8 -7 -17 -10 -26z" />
    <glyph glyph-name="f" unicode="f" horiz-adv-x="347" 
d="M306 749v-78c-11 7 -25 11 -39 11c-39 0 -70 -31 -71 -70v-86h110v-60h-110v-466h-72v466h-73v60h73v84c0 53 29 99 72 124c22 12 45 20 71 20c14 0 27 -2 39 -5z" />
    <glyph glyph-name="g" unicode="g" horiz-adv-x="644" 
d="M46 -43h75c36 -70 111 -118 195 -118c103 0 189 74 205 172c1 4 1 30 1 68c-50 -57 -124 -93 -207 -93c-152 0 -284 120 -284 270s132 270 284 270c82 0 156 -36 207 -92c-1 54 -1 92 -1 92h72v-484c0 -14 -1 -29 -3 -42c-22 -129 -136 -227 -273 -227
c-122 0 -231 76 -271 184zM314 52c114 0 207 91 207 204s-93 204 -207 204c-115 0 -215 -91 -215 -204s100 -204 215 -204z" />
    <glyph glyph-name="h" unicode="h" horiz-adv-x="588" 
d="M133 754v-292c42 40 109 64 171 64s110 -24 152 -64c44 -42 71 -102 71 -168v-294h-71v298c-3 87 -64 157 -152 157c-87 0 -169 -70 -171 -157v-298h-72v754h72z" />
    <glyph glyph-name="i" unicode="i" horiz-adv-x="245" 
d="M164 608h-82v82h82v-82zM159 0h-72v526h72v-526z" />
    <glyph glyph-name="j" unicode="j" horiz-adv-x="279" 
d="M198 608h-82v82h82v-82zM121 -86v612h73v-610c0 -53 -30 -99 -73 -124c-20 -12 -45 -19 -72 -19c-13 0 -27 2 -39 5v78c11 -7 25 -12 39 -12c39 0 71 32 72 70z" />
    <glyph glyph-name="k" unicode="k" horiz-adv-x="517" 
d="M472 526l-274 -238l319 -288h-107l-268 241l-9 -9v-232h-72v754h72v-426l229 198h110z" />
    <glyph glyph-name="l" unicode="l" horiz-adv-x="235" 
d="M82 0v754h72v-754h-72z" />
    <glyph glyph-name="m" unicode="m" horiz-adv-x="921" 
d="M102 526v-64c42 40 109 64 171 64s110 -24 152 -64c13 -13 26 -28 36 -44c41 66 124 108 207 108c62 0 108 -24 150 -64c45 -42 73 -102 73 -168v-294h-73v298c-2 87 -62 157 -150 157s-170 -71 -171 -159v-296h-72v298c-3 87 -64 157 -152 157c-87 0 -169 -70 -171 -157
v-298h-71v526h71z" />
    <glyph glyph-name="n" unicode="n" horiz-adv-x="527" 
d="M103 526v-64c42 40 109 64 171 64s109 -24 151 -64c44 -42 72 -102 72 -168v-294h-72v298c-2 87 -64 157 -151 157c-88 0 -169 -70 -171 -157v-298h-72v526h72z" />
    <glyph glyph-name="o" unicode="o" horiz-adv-x="600" 
d="M305 541c152 0 275 -121 275 -271s-123 -270 -275 -270s-285 120 -285 270s133 271 285 271zM304 67c114 0 207 90 207 203s-93 204 -207 204c-115 0 -215 -91 -215 -204s100 -203 215 -203z" />
    <glyph glyph-name="p" unicode="p" horiz-adv-x="654" 
d="M133 541v-97c53 58 132 97 216 97c152 0 275 -121 275 -271s-123 -270 -275 -270c-84 0 -163 38 -216 96v-309h-72v754h72zM348 67c115 0 207 90 207 203s-92 204 -207 204s-215 -91 -215 -204s100 -203 215 -203z" />
    <glyph glyph-name="q" unicode="q" horiz-adv-x="654" 
d="M521 444v97h72v-754h-72v309c-53 -58 -132 -96 -216 -96c-152 0 -274 120 -274 270s122 271 274 271c84 0 163 -39 216 -97zM306 67c115 0 215 90 215 203s-100 204 -215 204c-114 0 -207 -91 -207 -204s93 -203 207 -203z" />
    <glyph glyph-name="r" unicode="r" horiz-adv-x="379" 
d="M143 526v-64c42 40 99 64 161 64c19 0 38 -3 55 -7v-75c-17 6 -36 11 -55 11c-87 0 -159 -70 -161 -157v-298h-71v526h71z" />
    <glyph glyph-name="s" unicode="s" horiz-adv-x="407" 
d="M321 434l45 47c-50 49 -101 74 -151 74c-43 0 -78 -14 -107 -41c-28 -28 -42 -62 -42 -103c0 -32 9 -59 26 -85c17 -25 52 -49 101 -75c45 -24 75 -42 88 -57c13 -16 19 -35 19 -55c0 -24 -11 -45 -30 -63c-19 -17 -43 -27 -71 -27c-40 0 -78 21 -114 61l-44 -51
c18 -24 42 -43 71 -56s58 -20 90 -20c47 0 85 15 117 46c32 32 48 69 48 113c0 32 -10 60 -28 86c-18 25 -55 51 -107 78c-43 22 -71 42 -84 58s-20 33 -20 50c0 20 9 38 25 53c16 14 35 22 58 22c36 0 73 -18 110 -55z" />
    <glyph glyph-name="t" unicode="t" horiz-adv-x="336" 
d="M205 526h91v-60h-91v-466h-72v466h-92v60h92v228h72v-228z" />
    <glyph glyph-name="u" unicode="u" horiz-adv-x="568" 
d="M445 0v47c-42 -40 -110 -64 -172 -64s-108 24 -150 64c-44 43 -72 102 -72 168v311h72v-315c2 -87 63 -157 150 -157c88 0 169 70 172 157v315h72v-526h-72z" />
    <glyph glyph-name="v" unicode="v" horiz-adv-x="537" 
d="M269 159l169 367h79l-248 -539l-249 539h79z" />
    <glyph glyph-name="w" unicode="w" horiz-adv-x="865" 
d="M610 167l156 362h79l-234 -542l-179 406l-178 -406l-234 542h79l156 -362l177 405z" />
    <glyph glyph-name="x" unicode="x" horiz-adv-x="577" 
d="M539 526l-204 -252l222 -274h-93l-175 217l-176 -217h-93l223 274l-204 252h93l157 -194l156 194h94z" />
    <glyph glyph-name="y" unicode="y" horiz-adv-x="558" 
d="M280 160l169 366h78l-347 -753h-80l140 301l-209 452h79z" />
    <glyph glyph-name="z" unicode="z" horiz-adv-x="560" 
d="M48 526h492l-378 -466h352v-60h-494l378 466h-350v60z" />
    <glyph glyph-name="zero" unicode="0" horiz-adv-x="583" 
d="M288 755c205 0 255 -224 255 -386s-50 -386 -255 -386s-247 226 -247 386s41 386 247 386zM291 49c157 0 183 201 183 319c0 117 -26 318 -183 318c-162 0 -180 -200 -180 -318s18 -319 180 -319z" />
    <glyph glyph-name="one" unicode="1" horiz-adv-x="317" 
d="M61 735h175v-735h-73v664h-102v71z" />
    <glyph glyph-name="two" unicode="2" horiz-adv-x="583" 
d="M464 386l-267 -314h325v-72h-481l255 299s117 135 128 152s19 47 19 75c0 87 -70 158 -158 158c-87 0 -158 -71 -158 -158c0 -26 6 -49 17 -71h-74c-8 23 -13 45 -13 71c0 125 103 228 228 228c117 0 213 -88 226 -202c1 -8 1 -18 1 -26c0 -53 -18 -102 -48 -140z" />
    <glyph glyph-name="three" unicode="3" horiz-adv-x="567" 
d="M156 563h-72c2 105 89 192 195 192s193 -87 193 -195c0 -63 -31 -119 -78 -154c67 -40 112 -113 112 -196c0 -126 -102 -227 -227 -227c-123 0 -223 96 -228 217h72c5 -81 73 -147 156 -147c86 0 155 71 155 157s-69 156 -155 156v71c68 0 122 55 122 123
s-54 123 -122 123s-122 -53 -123 -120z" />
    <glyph glyph-name="four" unicode="4" horiz-adv-x="589" 
d="M439 775v-494h89v-72h-89v-209h-71v209h-327zM179 281h189v267z" />
    <glyph glyph-name="five" unicode="5" horiz-adv-x="592" 
d="M254 663l-36 -192c20 6 42 9 65 9c137 0 248 -112 248 -249s-111 -248 -248 -248c-117 0 -205 80 -232 190h73c25 -71 81 -122 160 -122c99 0 179 80 179 179c0 98 -80 180 -179 180c-26 0 -53 -6 -81 -14c-30 -8 -51 -14 -78 -27l70 366h317v-72h-258z" />
    <glyph glyph-name="six" unicode="6" horiz-adv-x="557" 
d="M424 725l-187 -292c14 2 28 4 42 4c125 0 227 -102 227 -227c0 -126 -102 -227 -227 -227c-106 0 -196 73 -221 171c-5 17 -7 37 -7 56c0 43 13 83 33 117l6 10l272 427zM157 308l-19 -28c-10 -22 -16 -45 -16 -70c0 -86 71 -157 157 -157s155 71 155 157
s-69 156 -155 156c-49 0 -93 -23 -122 -58z" />
    <glyph glyph-name="seven" unicode="7" horiz-adv-x="569" 
d="M61 664v71h467l-394 -754l-64 33l340 650h-349z" />
    <glyph glyph-name="eight" unicode="8" horiz-adv-x="557" 
d="M394 406c67 -40 112 -113 112 -196c0 -126 -102 -227 -227 -227c-126 0 -228 101 -228 227c0 83 44 156 111 196c-47 35 -78 91 -78 154c0 108 87 195 195 195s193 -87 193 -195c0 -63 -30 -119 -78 -154zM156 560c0 -68 55 -123 123 -123s122 55 122 123
s-54 123 -122 123s-123 -55 -123 -123zM279 53c86 0 155 71 155 157s-69 156 -155 156s-157 -70 -157 -156s71 -157 157 -157z" />
    <glyph glyph-name="nine" unicode="9" horiz-adv-x="536" 
d="M123 12l186 292c-13 -2 -27 -4 -41 -4c-126 0 -227 102 -227 227c0 126 101 228 227 228c105 0 194 -73 220 -171c4 -17 8 -38 8 -57c0 -43 -13 -82 -33 -116l-7 -11l-273 -427zM389 429l19 29c11 22 16 44 16 69c0 86 -70 157 -156 157s-156 -71 -156 -157
s70 -155 156 -155c49 0 92 22 121 57z" />
    <glyph glyph-name="asterisk" unicode="*" horiz-adv-x="614" 
d="M444 700l37 -62l-158 -58l158 -60l-37 -62l-129 108l28 -167h-73l30 167l-131 -108l-36 62l160 60l-160 58l36 62l131 -108l-30 167h73l-28 -167z" />
    <glyph glyph-name="backslash" unicode="\" horiz-adv-x="661" 
d="M51 806h82l477 -854h-83z" />
    <glyph glyph-name="colon" unicode=":" horiz-adv-x="614" 
d="M269 509h77v-77h-77v77zM269 82h77v-77h-77v77z" />
    <glyph glyph-name="comma" unicode="," horiz-adv-x="614" 
d="M300 116l70 -33l-94 -196l-60 29z" />
    <glyph glyph-name="ellipsis" unicode="&#x2026;" horiz-adv-x="0" 
 />
    <glyph glyph-name="exclam" unicode="!" horiz-adv-x="614" 
d="M271 729h73v-570h-73v570zM269 77h77v-77h-77v77z" />
    <glyph glyph-name="numbersign" unicode="#" horiz-adv-x="595" 
d="M575 527v-60h-120l-24 -161h114v-60h-123l-36 -246h-60l35 246h-161l-37 -246h-61l37 246h-119v60h128l24 161h-121v60h130l34 232h60l-33 -232h161l35 232h61l-35 -232h111zM209 306h162l23 161h-162z" />
    <glyph glyph-name="period" unicode="." horiz-adv-x="614" 
d="M269 77h77v-77h-77v77z" />
    <glyph glyph-name="periodcentered" unicode="&#xb7;" horiz-adv-x="614" 
d="M269 343h77v-77h-77v77z" />
    <glyph glyph-name="question" unicode="?" horiz-adv-x="614" 
d="M188 450h-74c-7 23 -12 46 -12 71c0 126 81 210 207 210c117 0 191 -64 204 -178c1 -8 1 -17 1 -26c0 -53 -14 -98 -50 -135c-35 -35 -59 -58 -97 -91c-41 -36 -41 -98 -41 -144h-77c0 108 24 153 59 188c34 34 83 64 109 97c22 26 28 57 28 85c0 87 -49 136 -136 136
c-88 0 -138 -55 -138 -142c0 -26 6 -49 17 -71zM249 77h77v-77h-77v77z" />
    <glyph glyph-name="quotedbl" unicode="&#x22;" horiz-adv-x="614" 
d="M176 763h95v-113l-56 -118l-36 18l49 118h-52v95zM343 763h95v-113l-56 -118l-37 18l50 118h-52v95z" />
    <glyph glyph-name="quotesingle" unicode="'" horiz-adv-x="614" 
d="M260 763h94v-113l-56 -118l-36 18l50 118h-52v95z" />
    <glyph glyph-name="semicolon" unicode=";" horiz-adv-x="614" 
d="M297 509h77v-77h-77v77zM314 116l70 -33l-93 -196l-61 29z" />
    <glyph glyph-name="slash" unicode="/" horiz-adv-x="614" 
d="M116 -48l306 854h77l-306 -854h-77z" />
    <glyph glyph-name="underscore" unicode="_" horiz-adv-x="614" 
d="M45 -83h524v-60h-524v60z" />
    <glyph glyph-name="braceleft" unicode="{" horiz-adv-x="614" 
d="M452 859h-28c-29 0 -51 -2 -63 -5c-22 -6 -40 -17 -54 -31c-13 -14 -24 -32 -31 -56c-6 -24 -10 -64 -10 -118c-1 -55 -1 -91 -2 -105c-2 -32 -7 -56 -15 -73c-8 -16 -21 -30 -37 -40c-12 -7 -29 -11 -49 -12v-81c25 -1 44 -8 59 -19c16 -12 28 -28 34 -51
c6 -22 10 -63 10 -124c0 -60 2 -100 5 -122c4 -32 13 -57 26 -75c14 -18 31 -32 54 -40c15 -6 39 -8 73 -8h28v77c-33 0 -55 3 -65 7s-17 9 -21 15c-7 10 -12 24 -14 42c-1 11 -2 49 -2 114c0 72 -8 122 -24 154s-43 56 -80 71c33 15 57 33 71 56c15 22 26 53 30 94
c2 22 3 71 3 149c0 43 7 71 18 84c11 12 33 18 68 18h16v79z" />
    <glyph glyph-name="braceright" unicode="}" horiz-adv-x="614" 
d="M452 338v81c-25 1 -45 7 -61 19c-15 11 -27 28 -33 50c-7 22 -10 64 -10 125c-1 59 -2 101 -5 123c-4 31 -13 56 -27 74c-13 19 -30 33 -53 40c-15 6 -40 9 -73 9h-27v-79h15c30 0 50 -3 60 -10s17 -20 21 -37c3 -12 4 -55 4 -129c0 -71 9 -120 24 -151s42 -56 81 -74
c-29 -12 -53 -30 -69 -53s-27 -55 -32 -95c-2 -22 -4 -72 -4 -152c0 -43 -5 -71 -16 -83s-34 -20 -69 -20h-15v-77h27c29 0 50 1 63 5c22 6 40 16 53 30c14 13 25 33 32 57c6 24 10 63 10 118c1 55 1 90 2 105c1 32 7 56 16 73c8 16 20 30 36 40c12 7 30 11 50 11z" />
    <glyph glyph-name="bracketleft" unicode="[" horiz-adv-x="614" 
d="M391 856v-73h-96v-809h96v-72h-168v954h168z" />
    <glyph glyph-name="bracketright" unicode="]" horiz-adv-x="614" 
d="M223 783v73h168v-954h-168v72h96v809h-96z" />
    <glyph glyph-name="parenleft" unicode="(" horiz-adv-x="614" 
d="M398 818h-81c-33 -76 -58 -158 -75 -247s-26 -180 -26 -273c0 -87 8 -171 22 -252c15 -80 34 -150 59 -209h77c-26 61 -47 134 -62 215c-14 82 -21 167 -21 255c0 95 9 188 28 277c20 89 46 166 79 234z" />
    <glyph glyph-name="parenright" unicode=")" horiz-adv-x="614" 
d="M216 -163h81c33 76 59 158 76 247s25 180 25 273c0 87 -7 170 -21 251s-35 151 -60 210h-76c26 -62 46 -134 61 -216c14 -81 22 -166 22 -254c0 -95 -10 -187 -29 -276s-46 -168 -79 -235z" />
    <glyph glyph-name="emdash" unicode="&#x2014;" horiz-adv-x="614" 
d="M629 406v-73h-643v73h643z" />
    <glyph glyph-name="endash" unicode="&#x2013;" horiz-adv-x="614" 
d="M475 406v-73h-336v73h336z" />
    <glyph glyph-name="hyphen" unicode="-" horiz-adv-x="614" 
d="M444 406v-73h-274v73h274z" />
    <glyph glyph-name="guillemotleft" unicode="&#x3c;" horiz-adv-x="614" 
d="M565 98l-505 232l-11 6v67l11 7l505 230v-79l-418 -191l418 -192v-80z" />
    <glyph glyph-name="guillemotright" unicode="&#x3e;" horiz-adv-x="614" 
d="M49 640l505 -230l11 -7v-67l-11 -6l-505 -232v80l418 192l-418 191v79z" />
    <glyph glyph-name="guilsinglleft" unicode="&#x2039;" horiz-adv-x="614" 
d="M565 98l-505 232l-11 6v67l11 7l505 230v-79l-418 -191l418 -192v-80z" />
    <glyph glyph-name="guilsinglright" unicode="&#x203a;" horiz-adv-x="614" 
d="M49 640l505 -230l11 -7v-67l-11 -6l-505 -232v80l418 192l-418 191v79z" />
    <glyph glyph-name="quotedblbase" unicode="&#x201e;" horiz-adv-x="614" 
 />
    <glyph glyph-name="quotedblleft" unicode="&#x201c;" horiz-adv-x="0" 
 />
    <glyph glyph-name="quotedblright" unicode="&#x201d;" horiz-adv-x="0" 
 />
    <glyph glyph-name="quoteleft" unicode="&#x2018;" horiz-adv-x="614" 
 />
    <glyph glyph-name="quoteright" unicode="&#x2019;" horiz-adv-x="614" 
 />
    <glyph glyph-name="quotesinglbase" unicode="&#x201a;" horiz-adv-x="614" 
 />
    <glyph glyph-name="space" unicode=" " horiz-adv-x="368" 
 />
    <glyph glyph-name="dollar" unicode="$" horiz-adv-x="614" 
d="M354 687v-256c65 -47 107 -89 131 -125c24 -37 35 -73 36 -110c2 -60 -44 -175 -167 -195v-119h-71v117c-110 14 -164 103 -192 154l63 37c38 -71 81 -109 129 -119v319c-56 43 -93 75 -107 94c-26 35 -39 73 -39 113c0 65 41 155 146 170v68h71v-69
c79 -15 125 -77 155 -117l-60 -45c-22 29 -51 68 -95 83zM283 485v205c-54 -14 -70 -63 -70 -90c0 -46 29 -78 47 -95c3 -4 12 -11 23 -20zM354 333v-257c65 22 88 83 87 118c0 25 -8 48 -24 72c-14 19 -35 42 -63 67z" />
    <glyph glyph-name="asciitilde" unicode="~" horiz-adv-x="614" 
d="M561 329v82c-42 -27 -70 -43 -84 -49c-14 -5 -29 -8 -43 -8c-11 0 -25 3 -39 7s-42 17 -81 35c-57 27 -101 40 -134 40c-15 0 -31 -2 -47 -8c-16 -5 -43 -19 -80 -39v-81c37 23 65 37 83 43c17 7 34 10 48 10c10 0 22 -2 34 -6s41 -16 85 -36c56 -26 100 -37 132 -37
c14 0 30 2 46 8c15 5 43 19 80 39z" />
    <glyph glyph-name="equal" unicode="=" horiz-adv-x="614" 
d="M560 505v-72h-506v72h506zM560 286v-73h-506v73h506z" />
    </font>
</defs>
</svg>
